<?xml version="1.0" standalone="no"?>
<!DOCTYPE svg PUBLIC "-//W3C//DTD SVG 1.1//EN" "http://www.w3.org/Graphics/SVG/1.1/DTD/svg11.dtd">
<svg xmlns="http://www.w3.org/2000/svg">
<defs >
<font id="PlayfairDisplay" horiz-adv-x="579" ><font-face
    font-family="Playfair Display Black"
    units-per-em="1000"
    panose-1="0 0 0 0 0 0 0 0 0 0"
    ascent="1082"
    descent="-251"
    alphabetic="0" />
<glyph unicode=" " horiz-adv-x="223" />
<glyph unicode="!" horiz-adv-x="306" d="M153 782Q194 782 226 748T259 656Q259 610 246 559T214 451T181 330T162 196V196H144Q140 266 125 329T92 450T61 559T47 656Q47 714 77 748T153 782ZM153 158Q200 158 226 137T252 72Q252 29 226 8T153 -14Q105 -14
80 7T54 72Q54 115 79 136T153 158Z" />
<glyph unicode="&quot;" horiz-adv-x="417" d="M111 730Q146 730 169 709T192 650Q192 622 181 598T153 545T118 468H104Q87 513 70 542T41 596T30 649Q30 686 53 708T111 730ZM306 730Q341 730 364 709T387 650Q387 622 376 598T348 545T313 468H299Q282 513
265 542T236 596T225 649Q225 686 248 708T306 730Z" />
<glyph unicode="#" horiz-adv-x="609" d="M457 602L360 101H340L437 602H457ZM539 267L535 247H34L38 267H539ZM270 602L173 101H153L250 602H270ZM575 454L572 434H71L74 454H575Z" />
<glyph unicode="$" horiz-adv-x="608" d="M300 722Q365 722 401 709T462 682Q474 675 481 672T496 668Q506 668 510 679T518 712H541Q540 691 539 663T537 589T536 468H513Q503 540 483 591T424 670T321 698Q257 698 230 675T203 619Q203 604 206 588T228 551T290
495T413 410Q459 381 495 350T553 279T575 184Q575 117 538 73T438 8T303 -14Q235 -14 198 0T140 22Q126 28 115 32T92 37Q82 37 78 26T70 -7H47Q49 19 49 53T50 143T51 283H74Q81 200 97 147T139 64T206 22T302 10Q357 10 387 21T428 52T440 93Q440 108 436 122T412
157T350 210T230 298Q183 330 142 363T77 437T52 533Q52 599 87 640T179 702T300 722ZM272 840V-132H252V840H272ZM378 840V-132H358V840H378Z" />
<glyph unicode="%" horiz-adv-x="719" d="M204 761Q280 761 327 718T375 598Q375 548 353 510T292 451T204 430Q128 430 80 473T32 593Q32 643 54 681T116 740T204 761ZM514 299Q486 299 472 261T457 150Q457 77 473 41T518 4Q547 4 560 42T574 152Q574 226 559
262T514 299ZM516 317Q592 317 639 274T687 154Q687 104 665 66T604 7T516 -14Q440 -14 392 29T344 149Q344 199 366 237T428 296T516 317ZM202 743Q174 743 160 705T145 594Q145 521 161 485T206 448Q235 448 248 486T262 596Q262 670 247 706T202 743ZM646 824L665
811L80 -55L61 -42L646 824Z" />
<glyph unicode="&amp;" horiz-adv-x="938" d="M346 715Q385 715 408 712T450 701Q467 696 484 685T514 656T526 612Q526 578 500 557T435 536Q399 536 374 553T349 606Q349 634 368 657T420 689Q410 693 394 695T361 697Q308 697 269 663T230 558Q230 539 236
515T261 464Q278 469 290 471T313 473Q331 473 339 465T348 444Q348 434 340 428T320 422Q304 422 288 432T262 450Q222 422 197 385T172 290Q172 226 207 187T312 129T479 110Q527 110 577 120T669 151T737 203T763 278Q763 292 761 313T746 356T705 394L708 402Q749
389 775 343T802 235Q802 159 754 103T622 17T430 -14Q335 -14 262 3T137 52T60 131T33 235Q33 292 57 332T118 398T190 438T248 458Q218 469 190 484T145 524T127 582Q127 620 147 645T201 686T273 708T346 715ZM758 722Q834 722 880 684T926 577Q926 514 893
474T799 410T651 373Q642 372 633 371T614 368T597 365T579 361Q475 342 422 321T368 258Q368 234 385 216T430 187T487 177Q492 177 496 177T505 178T514 179Q483 190 472 211T461 254Q461 291 489 310T558 329Q602 329 626 308T651 252Q651 219 632 198T577 168T494
158Q447 158 410 173T351 219T329 294Q329 358 363 399T461 466T609 503Q624 505 638 507T666 512T696 517Q782 531 835 552T889 618Q889 644 873 663T831 692T778 702Q771 702 764 702T751 700Q782 689 797 668T813 625Q813 588 786 570T718 551Q674 551 649 572T623
628Q623 655 637 676T681 710T758 722Z" />
<glyph unicode="&apos;" horiz-adv-x="222" d="M111 730Q146 730 169 709T192 650Q192 622 181 598T153 545T118 468H104Q87 513 70 542T41 596T30 649Q30 686 53 708T111 730Z" />
<glyph unicode="(" horiz-adv-x="334" d="M299 806L314 794Q259 686 231 571T203 312Q203 170 231 56T314 -170L299 -182Q168 -97 99 22T29 312Q29 482 98 601T299 806Z" />
<glyph unicode=")" horiz-adv-x="334" d="M35 806Q166 721 235 602T305 312Q305 142 236 23T35 -182L20 -170Q76 -58 103 56T131 312Q131 455 103 570T20 794L35 806Z" />
<glyph unicode="*" horiz-adv-x="473" d="M344 646Q370 661 389 652T419 624Q430 605 429 584T401 548Q376 534 337 531T238 517L236 520Q272 564 296 598T344 646ZM238 520Q294 511 335 507T401 489Q427 474 429 453T420 413Q410 394 391 385T345 391Q320 405
298 438T237 517L238 520ZM239 518Q259 465 276 428T294 361Q294 331 276 319T238 307Q216 307 199 319T181 361Q181 390 197 426T236 517L239 518ZM236 518L238 516Q202 472 178 438T130 390Q104 375 85 384T55 412Q44 431 45 452T73 488Q98 502 137 505T236 518ZM129
645Q154 631 177 599T237 519L236 516Q180 525 139 529T73 547Q47 562 46 583T54 623Q65 642 84 651T129 645ZM237 729Q258 729 275 717T293 675Q293 647 276 611T238 518H235Q215 571 198 609T180 675Q180 705 198 717T237 729Z" />
<glyph unicode="+" horiz-adv-x="565" d="M301 606V370H533V340H301V105H265V340H32V370H265V606H301Z" />
<glyph unicode="," horiz-adv-x="278" d="M135 158Q161 158 181 149T214 121Q225 107 232 82T239 26Q239 -24 213 -68T133 -138L124 -120Q150 -108 171 -86T199 -38Q208 -10 202 17Q176 -14 129 -14Q89 -14 65 8T41 72Q41 111 67 134T135 158Z" />
<glyph unicode="-" horiz-adv-x="469" d="M415 321V222H54V321H415Z" />
<glyph unicode="." horiz-adv-x="282" d="M141 158Q188 158 214 137T240 72Q240 29 214 8T141 -14Q93 -14 68 7T42 72Q42 115 67 136T141 158Z" />
<glyph unicode="/" horiz-adv-x="366" d="M336 722L64 -14H31L303 722H336Z" />
<glyph unicode="0" horiz-adv-x="675" d="M343 533Q429 533 494 500T597 408T635 268Q635 188 597 124T491 23T332 -14Q248 -14 182 19T78 112T40 252Q40 331 77 394T183 495T343 533ZM334 515Q288 515 258 446T227 255Q227 165 243 110T285 29T341 4Q388 4 418
73T448 265Q448 355 432 410T391 490T334 515Z" />
<glyph unicode="1" horiz-adv-x="392" d="M302 530V93Q302 51 314 36T358 21V0Q338 1 300 2T220 4Q165 4 115 3T36 0V21Q77 21 99 37T122 103V349Q122 397 115 420T88 450T36 457V479Q131 481 193 492T302 530Z" />
<glyph unicode="2" horiz-adv-x="553" d="M295 533Q378 533 426 500T474 405Q474 367 454 337T400 282T329 234T256 191T194 147H420Q461 147 472 156T487 188H510Q510 112 511 70T514 -5Q505 -3 481 -2T426 -1T365 0H36V21Q63 48 103 83T183 161T250 256T277
365Q277 416 255 439T188 463Q144 463 112 446T54 396L37 408Q61 443 94 471T177 516T295 533Z" />
<glyph unicode="3" horiz-adv-x="512" d="M259 533Q313 533 356 519T423 480T448 417Q448 380 421 347T341 288T209 252Q291 257 353 240T449 187T484 99Q484 53 457 14T384 -55T279 -107T154 -140T24 -151V-130Q68 -128 116 -113T205 -70T273 1T299 98Q299 157
272 194T195 236Q180 229 167 224T140 219Q131 219 126 222T120 235Q120 248 131 253T156 258Q164 258 172 257T191 255Q235 284 251 316T268 382Q268 426 244 447T178 469Q140 469 106 451T49 398L31 408Q51 441 79 469T151 515T259 533Z" />
<glyph unicode="4" horiz-adv-x="550" d="M407 533L411 507L79 105L102 151H429Q470 151 481 160T496 192H519Q519 124 520 86T523 19Q516 21 495 21T444 23T386 24T334 24H2V45L407 533ZM423 533V-141H283V368L407 533H423Z" />
<glyph unicode="5" horiz-adv-x="489" d="M419 549Q419 477 420 437T423 366Q415 368 393 369T341 370T284 371H98L79 215Q105 235 149 248T253 261Q324 261 370 240T438 182T460 101Q460 43 422 -3T319 -81T177 -131T20 -148V-130Q68 -130 113 -115T195 -70T253
1T275 97Q275 159 248 192T168 225Q137 225 115 215T72 188L56 199L96 522Q107 520 121 519T150 518H349Q371 518 382 525T396 549H419Z" />
<glyph unicode="6" horiz-adv-x="591" d="M481 723L485 703Q447 691 410 674T340 627T282 550T243 433T229 261Q229 166 241 110T271 30T308 6Q326 6 342 27T369 94T379 217Q379 289 370 332T345 394T309 413Q296 413 278 403T245 372T223 313L214 323Q220 366
240 392T292 430T359 442Q417 442 463 416T538 341T566 226Q566 149 529 95T431 14T297 -14Q178 -14 110 60T42 271Q42 361 70 431T146 552T251 639T369 694T481 723Z" />
<glyph unicode="7" horiz-adv-x="488" d="M21 523Q30 521 54 520T109 519T170 518H492V497Q473 456 444 406T384 296T334 168T314 22Q314 22 315 5T318 -31T319 -60Q319 -92 298 -120T228 -148Q182 -148 160 -118T137 -39Q137 8 158 56T215 152T289 245T366 332T429
407L410 371H115Q74 371 63 362T48 330H25Q25 406 24 448T21 523Z" />
<glyph unicode="8" horiz-adv-x="588" d="M301 722Q367 722 415 704T491 653T518 580Q518 531 479 497T365 430L357 444Q366 462 370 487T376 536T378 575Q378 637 356 670T295 704Q266 704 252 685T238 637Q238 597 261 559T320 485T396 413T472 338T531 260T554
173Q554 119 520 77T426 11T289 -14Q222 -14 165 5T72 64T37 159Q37 205 60 239T122 299T211 344L219 330Q199 299 192 258T185 179Q185 131 195 91T228 28T294 4Q340 4 359 31T379 96Q379 141 357 179T299 251T225 320T150 389T93 465T70 555Q70 614 103 651T189
705T301 722Z" />
<glyph unicode="9" horiz-adv-x="582" d="M292 533Q411 533 479 459T547 248Q547 169 520 107T446 -2T343 -79T228 -129T118 -154L114 -134Q160 -121 203 -99T282 -36T339 76T360 258Q360 354 348 409T318 489T281 513Q263 513 247 492T221 425T210 302Q210 231
219 188T245 125T280 106Q294 106 311 116T344 148T366 206L375 196Q370 153 349 127T297 89T230 77Q173 77 126 103T51 178T23 293Q23 371 60 424T159 505T292 533Z" />
<glyph unicode=":" horiz-adv-x="306" d="M153 533Q200 533 226 512T252 447Q252 404 226 383T153 361Q105 361 80 382T54 447Q54 490 79 511T153 533ZM153 158Q200 158 226 137T252 72Q252 29 226 8T153 -14Q105 -14 80 7T54 72Q54 115 79 136T153 158Z" />
<glyph unicode=";" horiz-adv-x="304" d="M147 158Q173 158 193 149T226 121Q237 107 244 82T251 26Q251 -24 225 -68T145 -138L136 -120Q162 -108 183 -86T211 -38Q220 -10 214 17Q188 -14 141 -14Q101 -14 77 8T53 72Q53 111 79 134T147 158ZM152 533Q199 533
225 512T251 447Q251 404 225 383T152 361Q104 361 79 382T53 447Q53 490 78 511T152 533Z" />
<glyph unicode="&lt;" horiz-adv-x="598" d="M514 582L531 546L122 355L531 164L514 128L27 355L514 582Z" />
<glyph unicode="=" horiz-adv-x="627" d="M564 440V410H63V440H564ZM564 300V270H63V300H564Z" />
<glyph unicode="&gt;" horiz-adv-x="598" d="M84 582L571 355L84 128L67 164L476 355L67 546L84 582Z" />
<glyph unicode="?" horiz-adv-x="540" d="M251 782Q329 782 387 761T478 699T511 602Q511 546 477 502T380 428T236 380V234H216V389Q266 414 290 444T323 509T332 583Q332 678 301 720T221 762Q192 762 172 757T142 743Q174 731 190 710T207 655Q207 620 181
596T111 571Q74 571 52 595T29 651Q29 688 47 710T93 747Q119 761 159 771T251 782ZM228 158Q275 158 301 137T327 72Q327 29 301 8T228 -14Q180 -14 155 7T129 72Q129 115 154 136T228 158Z" />
<glyph unicode="@" horiz-adv-x="888" d="M535 668Q625 668 698 640T814 552T857 393Q857 309 829 241T756 125T659 52T557 26Q519 26 500 39T476 73T475 118T486 167L546 464Q583 464 623 467T697 478L621 121Q617 101 616 85T621 63T645 66Q677 81 710 109T772
179T819 274T837 394Q837 487 796 543T686 624T536 650Q461 650 391 624T262 551T157 440T87 301T62 145Q62 42 102 -21T213 -114T372 -143Q426 -143 477 -131T578 -89L585 -102Q548 -128 493 -144T371 -161Q275 -161 201 -129T85 -30T42 143Q42 224 66 300T136
443T242 560T378 639T535 668ZM455 478Q491 478 510 460T536 415T537 365L525 356Q529 368 528 386T518 420T493 435Q474 435 453 412T414 350T384 261T372 160Q372 116 381 101T406 86Q435 86 456 120T498 218L502 201Q484 132 459 94T403 41T339 26Q306 26 278
39T232 83T215 162Q215 213 233 268T285 370T361 448T455 478Z" />
<glyph unicode="A" horiz-adv-x="692" d="M398 708L640 84Q654 50 670 36T699 20V0Q663 2 615 2T517 3Q466 3 421 3T349 0V20Q400 22 413 37T407 104L247 547L267 582L129 223Q104 158 99 119T103 58T135 29T187 20V0Q150 2 121 2T56 3Q37 3 16 3T-21 0V20Q2 24
24 49T71 137L293 708Q317 706 345 706T398 708ZM433 288V268H135L145 288H433Z" />
<glyph unicode="B" horiz-adv-x="704" d="M28 708Q57 707 104 706T200 705Q250 705 296 706T361 707Q498 707 565 663T632 550Q632 515 607 478T531 412T401 373V371Q504 366 566 339T656 274T684 194Q684 127 648 84T545 21T384 0Q360 0 314 1T202 3Q152 3 105
3T28 0V20Q59 22 74 28T94 52T99 106V602Q99 639 94 656T74 680T28 688V708ZM356 688Q322 688 312 671T302 602V106Q302 71 307 53T326 29T367 23Q423 23 448 68T474 198Q474 275 438 317T316 359H243Q243 359 243 367T243 376H329Q368 376 389 398T418 458T426
539Q426 613 410 650T356 688Z" />
<glyph unicode="C" horiz-adv-x="717" d="M414 722Q480 722 522 703T598 657Q618 642 628 653T643 708H666Q664 668 663 611T662 458H639Q635 506 626 543T599 610T547 661Q526 675 503 683T454 691Q397 691 360 660T303 578T274 468T266 352Q266 296 274 237T302
127T360 45T454 13Q479 13 502 21T547 43Q597 74 614 126T639 260H662Q662 162 663 102T666 0H643Q639 43 630 54T598 51Q561 25 520 6T413 -14Q300 -14 215 29T83 153T36 348Q36 460 84 544T218 675T414 722Z" />
<glyph unicode="D" horiz-adv-x="811" d="M361 708Q571 708 672 619T774 362Q774 253 724 172T580 45T352 0Q336 0 310 1T254 2T202 3Q152 3 105 3T28 0V20Q59 22 74 28T94 52T99 106V602Q99 639 94 656T74 680T28 688V708Q57 707 104 706T200 705Q237 706 283
707T361 708ZM376 690Q330 690 316 673T302 604V104Q302 52 316 35T377 18Q445 18 486 57T545 173T564 358Q564 470 545 543T484 653T376 690Z" />
<glyph unicode="E" horiz-adv-x="650" d="M587 708Q583 658 582 612T580 540Q580 519 581 500T583 468H560Q548 551 520 598T455 665T376 685H363Q337 685 324 681T307 663T302 622V86Q302 59 306 46T324 28T363 23H396Q429 23 465 44T533 118T580 260H603Q600
224 600 168Q600 143 601 97T607 0Q556 2 492 2T378 3Q351 3 310 3T220 3T122 2T28 0V20Q59 22 74 28T94 52T99 106V602Q99 639 94 656T74 680T28 688V708Q72 707 121 707T219 706T309 705T378 705Q424 705 482 705T587 708ZM442 366Q442 366 442 356T442 346H272Q272
346 272 356T272 366H442ZM471 498Q467 441 467 411T468 356Q468 331 469 301T474 214H451Q445 251 427 281T379 328T312 346V366Q340 366 363 378T403 410T432 453T448 498H471Z" />
<glyph unicode="F" horiz-adv-x="608" d="M587 708Q583 658 582 612T580 540Q580 519 581 500T583 468H560Q543 551 513 598T448 665T376 685H363Q337 685 324 681T307 663T302 622V116Q302 76 310 56T343 29T413 23V0Q379 1 324 2T207 3Q161 3 115 2T28 0V20Q59
22 74 28T94 52T99 106V602Q99 639 94 656T74 680T28 688V708Q72 707 121 707T219 706T309 705T378 705Q424 705 482 705T587 708ZM442 366Q442 366 442 356T442 346H272Q272 346 272 356T272 366H442ZM471 498Q467 441 467 411T468 356Q468 331 469 301T474 214H451Q445
251 427 281T379 328T312 346V366Q340 366 363 378T403 410T432 453T448 498H471Z" />
<glyph unicode="G" horiz-adv-x="756" d="M424 722Q494 722 539 703T618 657Q629 648 638 648Q657 648 663 708H686Q684 668 683 611T682 458H659Q652 530 635 578T567 661Q546 675 518 683T464 691Q406 691 368 660T308 578T276 468T266 352Q266 172 310 89T427
6Q443 6 455 9T476 18Q487 26 492 38T497 68V168Q497 217 490 241T460 274T396 284V304Q419 303 452 303T521 302T587 301Q635 301 675 302T741 304V284Q724 283 715 277T703 253T700 198V0H680Q679 17 672 37T649 57Q641 57 627 53T581 34Q542 15 499 1T412 -14Q287
-14 203 29T78 153T36 348Q36 460 85 544T222 675T424 722Z" />
<glyph unicode="H" horiz-adv-x="829" d="M456 0V20Q487 22 502 28T522 52T527 106V602Q527 639 522 656T502 680T456 688V708Q487 707 535 706T633 705Q684 705 729 706T801 708V688Q771 687 756 681T735 657T730 602V106Q730 70 735 52T756 28T801 20V0Q774
2 729 2T633 3Q584 3 536 3T456 0ZM28 0V20Q59 22 74 28T94 52T99 106V602Q99 639 94 656T74 680T28 688V708Q57 707 104 706T206 705Q253 705 298 706T373 708V688Q343 687 328 681T307 657T302 602V106Q302 70 307 52T328 28T373 20V0Q344 2 299 2T206 3Q152
3 105 3T28 0ZM217 346V366H612V346H217Z" />
<glyph unicode="I" horiz-adv-x="401" d="M373 708V688Q343 687 328 681T307 657T302 602V106Q302 70 307 52T328 28T373 20V0Q344 2 299 2T206 3Q152 3 105 3T28 0V20Q59 22 74 28T94 52T99 106V602Q99 639 94 656T74 680T28 688V708Q57 707 104 706T206 705Q253
705 298 706T373 708Z" />
<glyph unicode="J" horiz-adv-x="390" d="M-25 -188V-167Q11 -162 38 -144T79 -79T94 55V602Q94 639 89 656T69 680T23 688V708Q50 707 95 706T190 705Q240 705 288 706T368 708V688Q338 687 323 681T302 657T297 602V236Q297 195 297 148T295 55T280 -25Q258
-94 183 -141T-25 -188Z" />
<glyph unicode="K" horiz-adv-x="754" d="M739 708V689Q705 680 664 656T575 579L391 370L472 476L709 81Q722 60 735 46T770 20V0Q728 2 681 2T590 3Q567 3 533 3T447 0V20Q494 22 501 31T494 65L349 310Q339 328 331 337T316 350T296 355V376Q340 378 379 405T473
495L507 533Q549 580 551 614T531 668T469 689V708Q497 707 521 707T573 706T638 705Q670 705 694 706T739 708ZM373 708V688Q343 687 328 681T307 657T302 602V106Q302 70 307 52T328 28T373 20V0Q344 2 299 2T206 3Q152 3 105 3T28 0V20Q59 22 74 28T94 52T99
106V602Q99 639 94 656T74 680T28 688V708Q57 707 104 706T206 705Q253 705 298 706T373 708Z" />
<glyph unicode="L" horiz-adv-x="626" d="M383 708V688Q349 687 332 681T308 657T302 602V86Q302 59 306 46T321 28T353 23H386Q412 23 442 43T500 98T550 177T580 270H603Q600 234 600 178Q600 152 601 103T607 0Q556 2 492 2T378 3Q351 3 310 3T220 3T122 2T28
0V20Q59 22 74 28T94 52T99 106V602Q99 639 94 656T74 680T28 688V708Q57 707 104 706T206 705Q256 705 304 706T383 708Z" />
<glyph unicode="M" horiz-adv-x="965" d="M937 708V688Q907 687 892 681T871 657T866 602V106Q866 70 871 52T892 28T937 20V0Q906 2 858 2T760 3Q706 3 659 3T582 0V20Q616 22 633 28T657 52T663 106V641L673 643L422 1H406L124 643V196Q124 129 129 94T156 43T225
20V0Q205 2 173 2T113 3Q91 3 68 3T30 0V20Q61 27 76 41T96 88T101 176V602Q101 639 96 656T76 680T30 688V708Q45 707 68 706T113 705Q171 705 224 706T320 708L518 262L488 229L673 705Q693 705 716 705T760 705Q810 705 858 706T937 708Z" />
<glyph unicode="N" horiz-adv-x="732" d="M708 708V688Q678 682 663 667T642 621T637 532V0Q622 2 605 2T567 0L124 484V196Q124 129 129 94T156 43T225 20V0Q205 2 173 2T113 3Q91 3 68 3T30 0V20Q61 27 76 41T96 88T101 176V602Q101 639 96 656T76 680T30 688V708Q45
707 68 706T113 705Q138 705 162 706T205 708L614 276V512Q614 579 609 614T582 666T513 688V708Q533 707 565 706T625 705Q648 705 670 706T708 708Z" />
<glyph unicode="O" horiz-adv-x="827" d="M414 722Q527 722 612 679T744 556T791 360Q791 248 743 164T610 33T413 -14Q300 -14 215 29T83 153T36 348Q36 460 84 544T218 675T414 722ZM410 704Q360 704 323 659T266 535T246 352Q246 246 269 168T331 47T417 4Q467
4 504 49T561 173T581 356Q581 463 558 541T496 661T410 704Z" />
<glyph unicode="P" horiz-adv-x="678" d="M28 708Q57 707 104 706T200 705Q250 705 296 706T361 707Q513 707 587 652T662 510Q662 474 647 435T596 362T498 307T339 286H233V306H329Q380 306 406 333T442 404T452 499Q452 594 431 641T356 688Q322 688 312 671T302
602V116Q302 75 310 55T343 29T413 23V0Q379 1 324 2T207 3Q161 3 115 2T28 0V20Q59 22 74 28T94 52T99 106V602Q99 639 94 656T74 680T28 688V708Z" />
<glyph unicode="Q" horiz-adv-x="827" d="M775 36L794 31Q789 -33 771 -81T721 -153Q699 -170 665 -179T596 -188Q540 -188 486 -172T377 -131T264 -82Q258 -80 251 -78T240 -75Q221 -86 199 -93T156 -100Q136 -100 123 -93T109 -70Q109 -39 164 -39Q199 -39 240
-57Q278 -47 305 -35T362 -11T432 3L433 -13Q401 -16 378 -24T331 -43T275 -62Q361 -64 423 -65T535 -64T630 -52Q685 -40 717 -21T775 36ZM414 722Q527 722 612 679T744 556T791 360Q791 248 743 164T610 33T413 -14Q300 -14 215 29T83 153T36 348Q36 460 84 544T218
675T414 722ZM410 704Q360 704 323 659T266 535T246 352Q246 246 269 168T331 47T417 4Q467 4 504 49T561 173T581 356Q581 463 558 541T496 661T410 704Z" />
<glyph unicode="R" horiz-adv-x="721" d="M28 708Q57 707 104 706T200 705Q250 705 296 706T361 707Q463 707 529 688T629 631T662 533Q662 496 647 461T596 398T498 353T339 336H243V356H329Q380 356 406 378T442 438T452 522Q452 601 431 644T356 688Q322 688
312 671T302 602V106Q302 70 307 52T328 28T373 20V0Q344 2 299 2T206 3Q152 3 105 3T28 0V20Q59 22 74 28T94 52T99 106V602Q99 639 94 656T74 680T28 688V708ZM237 353Q273 352 305 349T364 344T410 340Q517 335 570 303T636 209L657 105Q665 68 675 54T702 40Q712
40 719 43T733 53L746 40Q715 9 679 -2T596 -14Q531 -14 491 9T442 94L427 194Q421 235 412 267T388 317T347 336H239L237 353Z" />
<glyph unicode="S" horiz-adv-x="613" d="M302 722Q367 722 403 709T464 682Q476 675 483 672T498 668Q508 668 512 679T520 712H543Q542 691 541 663T539 589T538 468H515Q511 523 490 575T431 661T341 695Q297 695 268 671T239 602Q239 565 257 539T313 483T415
410Q460 379 496 348T555 278T577 184Q577 117 540 73T440 8T305 -14Q237 -14 197 -2T128 23Q106 37 94 37Q84 37 80 26T72 -7H49Q51 19 51 53T52 143T53 283H76Q80 213 98 152T155 54T258 16Q295 16 321 27T363 61T378 114Q378 156 359 187T308 246T232 302Q185
334 144 366T79 438T54 533Q54 599 89 640T181 702T302 722Z" />
<glyph unicode="T" horiz-adv-x="699" d="M676 708Q672 649 671 594T669 510Q669 489 670 470T672 438H649Q626 532 594 586T525 662T452 685H451V113Q451 72 459 52T492 26T562 20V0Q527 1 468 2T343 3Q281 3 226 2T137 0V20Q183 20 207 26T239 52T248 113V685H247Q211
685 175 663T106 587T50 438H27Q29 451 29 470T30 510Q30 539 29 594T23 708Q71 707 129 706T245 705T350 705Q397 705 455 705T571 706T676 708Z" />
<glyph unicode="U" horiz-adv-x="693" d="M681 708V688Q651 682 636 667T615 621T610 532V291Q610 229 602 174T569 79Q543 36 492 11T354 -14Q308 -14 257 -4T166 34Q132 59 114 95T90 179T84 288V602Q84 639 79 656T59 680T13 688V708Q42 707 89 706T189 705Q241
705 289 706T368 708V688Q334 687 317 681T293 657T287 602V194Q287 145 295 112T318 58T357 30T412 21Q479 21 517 53T571 144T587 280V512Q587 579 582 614T555 666T486 688V708Q506 707 538 706T598 705Q621 705 643 706T681 708Z" />
<glyph unicode="V" horiz-adv-x="693" d="M705 708V688Q682 677 655 645T605 548L410 0Q398 1 385 1T357 2Q344 2 331 2T305 0L43 624Q29 659 14 673T-16 688V708Q20 707 68 706T166 705Q217 705 262 706T334 708V688Q303 687 285 681T265 658T276 604L456 161L432
130L546 450Q577 538 579 589T559 664T497 688V708Q535 707 564 706T628 705Q648 705 669 706T705 708Z" />
<glyph unicode="W" horiz-adv-x="1010" d="M1018 708V688Q995 677 970 645T925 548L757 0Q745 1 732 1T704 2Q691 2 678 2T652 0L442 641Q434 667 421 677T391 688V708Q425 707 471 706T564 705Q611 705 652 706T719 708V688Q688 687 671 681T652 657T661 604L798
188L769 127L870 450Q898 539 897 590T873 664T810 688V708Q848 707 877 706T941 705Q961 705 982 706T1018 708ZM295 708V688Q278 685 273 671T269 638T277 604L428 179L400 136L520 461L534 432L381 0Q369 1 356 1T328 2Q315 2 302 2T276 0L44 624Q31 659 15
673T-15 688V708Q21 707 69 706T162 705Q206 705 240 706T295 708Z" />
<glyph unicode="X" horiz-adv-x="729" d="M336 709V688Q294 688 281 681T281 654L692 71Q712 43 723 33T754 21V0Q729 1 681 2T583 4Q534 4 484 3T409 0V21Q451 21 464 28T464 55L56 638Q36 667 25 677T-6 688V709Q20 708 71 707T175 705Q222 705 267 706T336
709ZM314 350Q314 350 316 344T320 331T322 324L236 217Q194 164 187 121T201 51T268 20V0Q254 1 230 1T180 2T130 3T95 3Q64 3 40 3T-2 0V20Q36 36 78 71T164 162L314 350ZM693 708V688Q659 675 623 643T558 575L395 375Q395 375 391 387T387 400L483 518Q522
563 530 600T521 661T463 688V708Q482 707 507 707T556 706T596 705Q627 705 652 706T693 708Z" />
<glyph unicode="Y" horiz-adv-x="644" d="M636 709V689Q613 678 587 648T530 556L350 199H283L49 632Q32 664 17 676T-9 688V709Q22 706 55 705T129 703Q180 703 239 705T349 709V688Q324 688 303 686T273 677T273 650L424 360L377 298L461 466Q503 549 507 597T490
666T428 689V709Q466 708 495 707T559 706Q579 706 600 707T636 709ZM437 393V106Q437 70 442 52T463 28T508 20V0Q479 2 431 2T336 3Q285 3 238 3T163 0V20Q194 22 209 28T229 52T234 106V311L343 249L437 393Z" />
<glyph unicode="Z" horiz-adv-x="607" d="M561 708V688L258 23H300Q326 23 363 35T439 74T506 146T542 260H565Q562 224 562 168Q562 143 563 97T569 0Q532 2 488 2T401 3T320 3Q252 3 178 3T37 0V20L340 685H290Q259 685 224 675T156 641T99 574T66 468H43Q45
481 45 500T46 540Q46 565 45 611T39 708Q70 707 107 706T181 705T248 705Q323 705 405 705T561 708Z" />
<glyph unicode="[" horiz-adv-x="340" d="M299 772V753H258V-162H299V-181H78V772H299Z" />
<glyph unicode="\" horiz-adv-x="366" d="M30 722H63L335 -14H302L30 722Z" />
<glyph unicode="]" horiz-adv-x="340" d="M41 772H262V-181H41V-162H82V753H41V772Z" />
<glyph unicode="^" horiz-adv-x="524" d="M271 528Q305 469 360 412T478 316L470 302Q404 313 342 329T242 362Q211 346 160 330T54 302L46 316Q108 353 163 410T253 528H271Z" />
<glyph unicode="_" horiz-adv-x="591" d="M579 -63V-202H64V-63H579Z" />
<glyph unicode="`" horiz-adv-x="304" d="M71 820Q94 841 123 836T169 812Q187 792 195 766T214 703T254 608L243 599Q196 639 163 659T107 694T67 729Q50 750 50 776T71 820Z" />
<glyph unicode="a" horiz-adv-x="531" d="M156 -7Q109 -7 79 11T36 58T22 119Q22 161 41 187T90 230T155 258T219 279T269 304T288 342V431Q288 447 283 466T262 499T217 513Q201 513 187 509T161 496Q196 483 212 460T228 408Q228 368 200 345T134 322Q94 322
72 347T50 409Q50 440 65 461T112 501Q142 518 184 525T272 533Q321 533 363 524T435 483Q456 461 462 428T468 343V75Q468 50 471 41T484 32Q492 32 499 37T514 47L524 30Q502 11 470 2T401 -7Q358 -7 335 3T302 31T291 69Q270 36 239 15T156 -7ZM251 73Q262 73
270 76T288 90V301Q281 288 270 276T246 250T224 222T207 188T200 142Q200 104 214 89T251 73Z" />
<glyph unicode="b" horiz-adv-x="601" d="M395 533Q469 533 519 472T569 282Q569 169 537 104T452 13T336 -14Q302 -14 274 -10T220 10L231 26Q244 16 260 11T290 6Q337 6 359 69T382 259Q382 348 373 396T349 462T315 481Q287 481 265 461T243 409V458Q266 496
305 514T395 533ZM243 782V-2Q210 12 176 13T113 6T70 -16L56 -6Q61 8 62 21T63 49V662Q63 707 51 728T7 750V771Q39 768 69 768Q119 768 162 771T243 782Z" />
<glyph unicode="c" horiz-adv-x="503" d="M287 533Q331 533 365 524T419 503Q446 487 462 461T479 399Q479 358 452 330T383 302Q339 302 315 327T291 392Q291 430 315 456T373 492Q366 497 357 500T333 504Q297 504 275 483T240 426T222 351T217 273Q217 203
236 164T284 110T342 95Q356 95 375 99T418 117T463 162L480 156Q468 116 442 77T373 12T271 -14Q204 -14 150 12T63 98T30 259Q30 355 64 415T156 504T287 533Z" />
<glyph unicode="d" horiz-adv-x="609" d="M537 782V110Q537 65 549 44T593 22V1Q562 4 531 4Q481 4 438 1T357 -10V662Q357 707 345 728T301 750V771Q333 768 363 768Q413 768 456 771T537 782ZM253 533Q297 533 327 523T380 489L369 478Q356 489 340 494T310
500Q264 500 241 441T218 260Q218 172 227 124T251 57T285 38Q313 38 335 58T357 110V61Q337 23 308 5T235 -14Q178 -14 132 14T58 104T31 263Q31 354 58 413T136 503T253 533Z" />
<glyph unicode="e" horiz-adv-x="503" d="M288 533Q376 533 426 482T477 309H164L162 328H331Q332 377 327 418T311 485T281 510Q254 510 237 468T215 322L219 314Q218 304 218 294T218 273Q218 203 235 164T279 110T333 95Q347 95 366 99T409 117T454 162L471
156Q459 116 433 77T364 12T262 -14Q198 -14 146 12T62 98T31 259Q31 355 65 415T157 504T288 533Z" />
<glyph unicode="f" horiz-adv-x="365" d="M296 782Q336 782 365 772T416 745Q430 734 441 713T453 662Q453 631 430 606T370 581Q329 581 305 603T280 664Q280 693 297 717T349 753Q346 757 340 759T322 762Q305 762 294 757T275 743Q266 732 261 712T256 652V518H363V498H256V103Q256
54 279 38T342 21V0Q314 1 264 2T158 4Q118 4 79 3T20 0V21Q51 21 63 36T76 93V498H16V518H76Q76 577 83 616T105 682T147 732Q170 752 210 767T296 782Z" />
<glyph unicode="g" horiz-adv-x="570" d="M221 -188Q153 -188 104 -178T27 -148T0 -100Q0 -72 28 -48T117 -9L127 -25Q111 -44 106 -59T100 -89Q100 -128 135 -149T235 -171Q280 -171 310 -159T356 -124T372 -74Q372 -46 351 -26T266 -6H212Q166 -6 135 6T88 39T72
90Q72 137 109 169T204 226L213 218Q203 211 192 201T181 172Q181 140 217 140H314Q379 140 427 126T503 81T531 -2Q531 -52 499 -94T398 -162T221 -188ZM235 213Q173 213 125 230T48 282T20 373Q20 428 48 463T124 516T235 533Q297 533 345 516T422 464T450 373Q450
318 422 283T346 230T235 213ZM235 231Q254 231 265 262T276 373Q276 453 265 484T235 515Q216 515 205 484T194 373Q194 293 205 262T235 231ZM398 445L377 452Q393 494 426 519T500 545Q535 545 552 526T569 479Q569 450 554 434T516 418Q497 418 482 431T464
470T483 536L487 529Q452 516 432 497T398 445Z" />
<glyph unicode="h" horiz-adv-x="622" d="M254 782V458Q278 498 318 515T413 533Q459 533 485 522T526 493Q541 475 548 445T555 364V93Q555 51 567 36T611 21V0Q591 1 551 2T471 4Q429 4 389 3T329 0V21Q355 21 365 36T375 93V418Q375 439 370 453T355 474T326
481Q308 481 292 472T265 447T254 409V93Q254 51 264 36T300 21V0Q281 1 244 2T168 4Q126 4 83 3T18 0V21Q49 21 61 36T74 93V662Q74 707 62 728T18 750V771Q50 768 80 768Q130 768 173 771T254 782Z" />
<glyph unicode="i" horiz-adv-x="330" d="M161 782Q213 782 241 761T270 696Q270 653 242 632T161 610Q109 610 81 631T52 696Q52 739 80 760T161 782ZM257 530V93Q257 51 269 36T313 21V0Q293 1 253 2T171 4Q129 4 86 3T21 0V21Q52 21 64 36T77 93V410Q77 455
65 476T21 498V519Q53 516 83 516Q133 516 176 519T257 530Z" />
<glyph unicode="j" horiz-adv-x="317" d="M-21 -188V-168Q19 -168 46 -140T74 -42V410Q74 455 62 476T18 498V519Q50 516 80 516Q130 516 173 519T254 530V80Q254 21 247 -19T225 -87T183 -138Q158 -160 110 -174T-21 -188ZM153 782Q205 782 233 761T262 696Q262
653 234 632T153 610Q101 610 73 631T44 696Q44 739 72 760T153 782Z" />
<glyph unicode="k" horiz-adv-x="609" d="M254 782V93Q254 51 266 36T310 21V0Q290 1 250 2T168 4Q126 4 83 3T18 0V21Q49 21 61 36T74 93V662Q74 707 62 728T18 750V771Q50 768 80 768Q130 768 173 771T254 782ZM586 519V499Q550 489 513 464T438 401L403 366L410
379L571 73Q579 58 588 44T611 21V0Q594 1 560 2T490 4Q450 4 410 3T349 0V21Q369 21 375 30T374 55L286 241Q279 255 270 259T249 263V282Q263 282 275 284T297 297L374 369Q409 401 409 429T388 477T329 499V519Q358 518 391 517T449 516Q470 516 497 516T548
517T586 519Z" />
<glyph unicode="l" horiz-adv-x="328" d="M254 782V93Q254 51 266 36T310 21V0Q290 1 250 2T168 4Q126 4 83 3T18 0V21Q49 21 61 36T74 93V662Q74 707 62 728T18 750V771Q50 768 80 768Q130 768 173 771T254 782Z" />
<glyph unicode="m" horiz-adv-x="916" d="M406 533Q452 533 478 522T519 493Q534 475 541 445T548 364V93Q548 51 558 36T594 21V0Q575 1 538 2T464 4Q425 4 388 3T332 0V21Q352 21 360 36T368 93V418Q368 439 364 453T352 474T329 481Q311 481 295 472T268 447T257
409V93Q257 51 265 36T293 21V0Q276 1 242 2T171 4Q129 4 86 3T21 0V21Q52 21 64 36T77 93V410Q77 455 65 476T21 498V519Q53 516 83 516Q133 516 176 519T257 530V458Q280 498 318 515T406 533ZM707 533Q753 533 779 522T820 493Q835 475 842 445T849 364V93Q849
51 861 36T905 21V0Q885 1 845 2T765 4Q726 4 689 3T633 0V21Q653 21 661 36T669 93V418Q669 439 664 453T649 474T620 481Q602 481 586 470T559 442T546 403L539 443Q566 496 609 514T707 533Z" />
<glyph unicode="n" horiz-adv-x="625" d="M416 533Q462 533 488 522T529 493Q544 475 551 445T558 364V93Q558 51 570 36T614 21V0Q594 1 554 2T474 4Q432 4 392 3T332 0V21Q358 21 368 36T378 93V418Q378 439 373 453T358 474T329 481Q311 481 295 472T268 447T257
409V93Q257 51 267 36T303 21V0Q284 1 247 2T171 4Q129 4 86 3T21 0V21Q52 21 64 36T77 93V410Q77 455 65 476T21 498V519Q53 516 83 516Q133 516 176 519T257 530V458Q281 498 321 515T416 533Z" />
<glyph unicode="o" horiz-adv-x="576" d="M288 533Q366 533 423 507T513 420T545 259Q545 158 513 98T424 12T288 -14Q211 -14 153 12T63 98T31 259Q31 360 63 420T153 506T288 533ZM288 513Q258 513 238 453T218 259Q218 125 238 66T288 6Q318 6 338 65T358 259Q358
393 338 453T288 513Z" />
<glyph unicode="p" horiz-adv-x="612" d="M254 529V-78Q254 -127 277 -143T340 -160V-181Q312 -180 262 -179T156 -177Q116 -177 77 -178T18 -181V-160Q49 -160 61 -145T74 -88V409Q74 454 62 475T18 497V518Q50 515 80 515Q130 515 173 518T254 529ZM406 533Q456
533 495 506T557 423T580 282Q580 197 562 140T511 49T436 1T347 -14Q313 -14 283 -7T232 22L242 35Q250 24 263 20T289 16Q326 16 349 43T382 124T393 259Q393 348 384 396T360 462T326 481Q298 481 276 461T254 409V458Q277 496 316 514T406 533Z" />
<glyph unicode="q" horiz-adv-x="600" d="M253 533Q289 533 320 530T380 510L369 494Q356 505 340 509T310 513Q264 513 241 450T218 260Q218 172 227 124T251 57T285 38Q313 38 335 58T357 110V61Q337 23 308 5T235 -14Q178 -14 132 14T58 104T31 263Q31 354
58 413T136 503T253 533ZM530 535L544 525Q540 512 539 498T537 470V-88Q537 -130 549 -145T593 -160V-181Q573 -180 535 -179T455 -177Q400 -177 350 -178T271 -181V-160Q312 -160 334 -144T357 -78V520Q390 507 424 506T487 513T530 535Z" />
<glyph unicode="r" horiz-adv-x="481" d="M386 533Q422 533 442 518T470 479T478 432Q478 387 453 361T386 334Q342 334 320 354T297 406Q297 440 311 462T348 499Q330 499 316 492Q304 487 293 478T274 458T262 432T257 403V103Q257 55 277 38T343 21V0Q320 1
275 2T181 4Q136 4 90 3T21 0V21Q52 21 64 36T77 93V410Q77 455 65 476T21 498V519Q53 516 83 516Q133 516 176 519T257 530V458Q270 484 289 500T332 525T386 533Z" />
<glyph unicode="s" horiz-adv-x="472" d="M231 533Q275 533 308 524T357 506Q392 485 400 532H420Q418 503 417 462T416 352H396Q392 389 379 425T340 485T273 509Q248 509 231 494T214 453Q214 423 232 400T278 355T334 309Q365 284 389 260T427 208T442 140Q442
95 415 60T342 6T240 -14Q205 -14 179 -7T137 11Q121 19 110 23T87 28Q77 28 70 18T59 -7H39Q41 25 42 71T43 193H63Q69 140 86 99T131 35T195 11Q211 11 224 17T245 35T253 66Q253 110 227 140T160 206Q130 234 104 260T60 318T43 389Q43 434 69 466T139 515T231
533Z" />
<glyph unicode="t" horiz-adv-x="350" d="M252 681V519H350V499H252V84Q252 65 259 57T282 48Q293 48 308 54T336 77L351 65Q330 29 296 8T209 -14Q176 -14 150 -6T106 20Q84 42 78 74T72 159V499H-4V519H72V637Q125 637 168 647T252 681Z" />
<glyph unicode="u" horiz-adv-x="622" d="M548 530V109Q548 64 560 43T604 21V0Q573 3 542 3Q492 3 449 0T368 -11V61Q344 21 304 4T209 -14Q163 -14 137 -3T96 26Q81 44 74 74T67 155V410Q67 455 55 476T11 498V519Q43 516 73 516Q123 516 166 519T247 530V101Q247
80 252 66T268 45T296 38Q315 38 331 47T357 72T368 110V410Q368 455 356 476T312 498V519Q344 516 374 516Q424 516 467 519T548 530Z" />
<glyph unicode="v" horiz-adv-x="520" d="M521 519V498Q502 491 485 471T450 401L315 0Q291 2 267 2T218 0L44 442Q29 480 13 489T-14 498V519Q26 516 69 515T164 513Q195 513 229 515T294 519V498Q276 498 262 497T241 488T238 460L350 148L337 128L393 295Q416
363 413 407T389 473T339 498V519Q353 518 373 517T412 516T444 515Q462 515 486 516T521 519Z" />
<glyph unicode="w" horiz-adv-x="798" d="M297 519V498Q276 498 262 496T242 485T241 460L330 163L313 140L410 518L431 507L298 0Q274 2 250 2T201 0L47 442Q33 482 17 490T-11 498V519Q29 516 72 515T167 513Q198 513 232 515T297 519ZM801 519V498Q782 491
764 471T730 401L605 0Q581 2 557 2T508 0L381 369L411 518Q437 516 464 516T517 518L641 120L628 142L674 295Q695 364 690 407T663 473T609 498V519Q623 518 645 517T690 516T724 515Q742 515 766 516T801 519Z" />
<glyph unicode="x" horiz-adv-x="547" d="M268 519V498Q248 498 241 489T243 464L504 71Q513 58 526 41T556 21V0Q537 1 500 2T425 4Q385 4 346 3T287 0V21Q307 21 314 30T312 55L51 448Q37 470 26 482T-1 498V519Q21 518 64 517T150 515Q185 515 218 516T268
519ZM212 228Q212 228 213 223T215 212T216 206L205 192Q172 150 168 112T184 48T239 20V0Q219 1 187 1T125 2T76 3Q54 3 39 3T9 0V20Q35 33 56 52T103 102L212 228ZM521 519V499Q499 489 476 468T427 417L319 292Q319 292 318 297T316 308T315 314L347 353Q377
390 383 422T373 475T321 499V519Q352 518 390 517T454 516Q476 516 492 517T521 519Z" />
<glyph unicode="y" horiz-adv-x="529" d="M525 519V498Q506 491 489 471T454 401L329 29L278 -88L38 442Q21 480 6 489T-20 498V519Q20 516 63 515T143 513Q190 513 224 515T288 519V498Q270 498 254 496T231 487T232 460L360 156L349 148L397 295Q420 363 417
407T393 473T343 498V519Q357 518 377 517T416 516T448 515Q466 515 490 516T525 519ZM329 29L287 -92Q278 -117 268 -135T243 -164Q230 -174 209 -181T150 -188Q122 -188 91 -179T37 -150T14 -94Q14 -59 41 -38T112 -17Q153 -17 177 -35T202 -91Q202 -113 187
-135T137 -168Q145 -169 155 -169T171 -170Q203 -170 228 -151T266 -90L301 19L329 29Z" />
<glyph unicode="z" horiz-adv-x="472" d="M447 523L223 15H237Q275 15 312 32T377 90T410 206H430Q430 127 431 79T434 -4Q388 -2 338 -1T238 0Q186 0 131 -1T26 -5L250 503H230Q193 503 157 486T95 428T63 312H43Q43 392 42 440T39 522Q86 520 136 519T235 518Q288
518 342 519T447 523Z" />
<glyph unicode="{" horiz-adv-x="353" d="M342 782V763Q321 762 307 755T286 727T275 664T272 551Q272 484 253 439T201 366T126 323T39 299Q84 291 126 276T200 232T252 159T272 47Q272 -27 275 -70T285 -134T307 -162T342 -169V-188Q251 -188 196 -168T117 -96T92
47Q92 141 86 192T63 266T16 290H11V308H16Q47 310 63 331T85 405T92 551Q92 639 116 689T196 761T342 782Z" />
<glyph unicode="|" horiz-adv-x="274" d="M197 858V-195H77V858H197Z" />
<glyph unicode="}" horiz-adv-x="353" d="M11 782Q103 782 157 761T236 690T261 551Q261 457 267 405T290 332T337 308H342V290H337Q307 288 291 266T268 193T261 47Q261 -45 237 -96T158 -167T11 -188V-169Q32 -169 46 -163T67 -135T78 -70T81 47Q81 114 100
159T152 232T227 275T314 299Q269 307 227 322T153 366T101 439T81 551Q81 622 78 664T68 727T46 755T11 763V782Z" />
<glyph unicode="~" horiz-adv-x="681" d="M212 405Q255 405 291 391T361 357T430 323T506 308Q542 308 571 325T616 386L634 383Q629 326 606 284T548 218T472 195Q429 195 393 209T323 243T254 277T178 292Q142 292 114 275T68 214L50 217Q55 274 78 316T136
382T212 405Z" />
<glyph unicode="&#xa0;" horiz-adv-x="223" />
<glyph unicode="&#xa1;" horiz-adv-x="295" d="M156 318Q160 260 175 205T208 100T239 8T253 -68Q253 -127 223 -157T148 -188Q101 -188 71 -157T41 -68Q41 -36 54 6T86 98T119 204T138 318H156ZM148 533Q195 533 221 512T247 447Q247 404 221 383T148 361Q100
361 75 382T49 447Q49 490 74 511T148 533Z" />
<glyph unicode="&#xa2;" horiz-adv-x="515" d="M259 -181V67H281V-181H259ZM259 519V708H281V519H259ZM288 533Q332 533 366 524T420 503Q447 487 463 461T480 399Q480 358 453 330T384 302Q340 302 316 327T292 392Q292 430 316 456T374 492Q367 497 358 500T334
504Q298 504 276 483T241 426T223 351T218 273Q218 203 237 164T285 110T343 95Q357 95 376 99T419 117T464 162L481 156Q469 116 443 77T374 12T272 -14Q205 -14 151 12T64 98T31 259Q31 355 65 415T157 504T288 533Z" />
<glyph unicode="&#xa3;" horiz-adv-x="699" d="M406 736Q447 736 477 730T526 714Q553 700 570 677T588 622Q588 585 564 560T500 535Q459 535 435 557T410 615Q410 647 427 671T475 707Q465 712 451 714T418 717Q388 717 369 704T338 662T322 585T317 465V351Q317
305 304 269T267 200T214 136T152 64Q217 123 263 140T345 158Q388 158 416 152T472 140T535 133Q565 133 583 149T601 190Q601 218 583 234T536 256L540 272Q572 267 601 250T649 205T668 137Q668 90 649 56T590 4T489 -14Q442 -14 401 -4T322 20T247 42Q237 44
225 47T198 50Q170 50 143 40Q124 12 102 -1T58 -14Q48 -14 40 -10T31 6Q31 17 40 26T68 44T116 58Q127 83 130 109T134 170T134 258V439Q134 501 147 554T191 649T274 713T406 736ZM422 317V297H57V317H422ZM422 417V397H57V417H422Z" />
<glyph unicode="&#xa4;" horiz-adv-x="669" d="M498 586L621 463L552 394Q561 372 566 349T571 300Q571 275 566 252T551 206L621 137L498 14L428 83Q406 74 383 69T334 64Q285 64 241 83L172 14L49 137L117 205Q108 227 103 251T98 300Q98 325 103 348T117 394L49
463L172 586L240 517Q262 527 285 532T334 537Q360 537 383 532T429 517L498 586ZM336 407Q310 407 289 393T255 354T242 300Q242 271 254 247T288 209T336 194Q362 194 383 208T416 247T429 300Q429 329 417 353T383 392T336 407Z" />
<glyph unicode="&#xa5;" horiz-adv-x="698" d="M585 307V287H152V307H585ZM585 207V187H152V207H585ZM669 709V689Q646 678 620 648T563 556L383 199H316L82 632Q65 664 50 676T24 688V709Q55 706 88 705T162 703Q213 703 272 705T382 709V688Q357 688 336 686T306
677T306 650L457 360L410 298L494 466Q536 549 540 597T523 666T461 689V709Q499 708 528 707T592 706Q612 706 633 707T669 709ZM470 393V106Q470 70 475 52T496 28T541 20V0Q512 2 464 2T369 3Q318 3 271 3T196 0V20Q227 22 242 28T262 52T267 106V311L376 249L470
393Z" />
<glyph unicode="&#xa6;" horiz-adv-x="278" d="M199 326V-195H79V326H199ZM199 858V384H79V858H199Z" />
<glyph unicode="&#xa7;" horiz-adv-x="630" d="M348 782Q399 782 433 774T485 756Q512 742 528 721T544 662Q544 630 520 606T456 581Q415 581 391 603T366 661Q366 690 381 714T422 749Q419 752 410 755T387 760T357 763Q320 763 298 751T266 720T256 677Q256
637 272 613T324 566T412 507Q471 468 513 436T577 369T599 290Q599 235 559 191T420 105L411 115Q433 135 444 152T455 204Q455 232 441 254T389 306T281 380Q212 425 169 461T106 531T86 608Q86 662 119 701T212 761T348 782ZM211 489L220 479Q198 460 187 443T176
390Q176 363 190 340T243 288T350 214Q419 169 462 134T525 63T545 -14Q545 -67 512 -106T419 -167T283 -188Q232 -188 198 -180T146 -162Q119 -148 103 -127T87 -68Q87 -36 111 -12T175 13Q216 13 240 -9T265 -67Q265 -96 250 -120T209 -155Q212 -157 221 -160T245
-166T274 -169Q311 -169 333 -157T365 -125T375 -83Q375 -43 359 -19T308 28T219 87Q160 127 118 159T54 225T32 304Q32 360 72 404T211 489Z" />
<glyph unicode="&#xa8;" horiz-adv-x="512" d="M375 772Q410 772 436 746T462 685Q462 649 436 624T375 598Q339 598 314 623T288 685Q288 720 313 746T375 772ZM137 772Q172 772 198 746T224 685Q224 649 198 624T137 598Q101 598 76 623T50 685Q50 720 75 746T137 772Z" />
<glyph unicode="&#xa9;" horiz-adv-x="872" d="M436 782Q519 782 591 751T717 666T803 539T834 384Q834 302 803 230T718 103T591 17T436 -14Q354 -14 282 17T155 102T69 229T38 384Q38 467 69 539T154 665T281 751T436 782ZM462 658Q506 658 540 649T594 628Q620
612 637 586T654 524Q654 483 627 455T558 427Q514 427 490 452T466 517Q466 555 490 581T548 617Q539 623 524 627T491 632Q484 632 477 631T461 628Q440 622 425 599T401 529T392 398Q392 316 411 271T459 208T517 190Q531 190 550 196T593 222T638 287L655 281Q643
241 617 202T548 137T446 111Q379 111 325 137T238 223T205 384Q205 480 239 540T331 629T462 658ZM436 750Q362 750 297 722T183 643T106 526T78 384Q78 308 106 242T183 126T297 47T436 18Q510 18 575 46T689 125T766 242T794 384Q794 460 766 526T689 642T575
721T436 750Z" />
<glyph unicode="&#xaa;" horiz-adv-x="495" d="M251 722Q342 722 382 692T423 595V423Q423 413 426 409T438 405Q451 405 459 412L470 397Q448 381 415 371T340 360Q297 360 281 372T263 407Q238 382 206 371T141 360Q96 360 67 379T38 439Q38 480 72 502T183
547Q212 555 237 569T263 603V621Q263 666 248 684T205 703Q194 703 184 701T164 692Q190 685 202 666T214 628Q214 595 189 578T131 561Q96 561 75 579T53 626Q53 652 69 670T111 699Q140 712 173 717T251 722ZM263 574Q260 566 253 557T233 534Q218 518 212 499T205
459Q205 439 213 427T233 415Q251 415 263 425V574Z" />
<glyph unicode="&#xab;" horiz-adv-x="614" d="M328 535L342 531Q335 500 322 461T291 384T256 312T221 259Q238 239 256 207T291 135T321 58T342 -12L328 -16Q258 56 184 123T22 249V269Q110 328 184 395T328 535ZM544 495L558 491Q552 455 536 410T502 323T467
259Q483 237 501 196T536 110T558 28L544 24Q483 84 419 142T278 249V269Q354 319 418 377T544 495Z" />
<glyph unicode="&#xac;" horiz-adv-x="632" d="M569 370V165H533V340H68V370H569Z" />
<glyph unicode="&#xad;" horiz-adv-x="469" />
<glyph unicode="&#xae;" horiz-adv-x="656" d="M328 782Q386 782 436 761T525 701T585 612T607 503Q607 445 586 395T526 306T437 246T328 224Q270 224 220 245T131 305T71 394T49 503Q49 561 70 611T130 700T219 760T328 782ZM264 525Q298 525 312 524T334 522T353
518Q410 514 430 501T456 459L473 388Q475 378 478 375T486 371Q492 371 497 375L503 364Q494 357 480 352T445 347Q410 347 391 358T367 392L354 464Q351 483 345 492T321 506T266 510L264 525ZM328 750Q262 750 209 717T123 627T91 503Q91 436 123 380T208 290T328
256Q394 256 448 289T533 379T565 503Q565 571 534 627T448 716T328 750ZM342 676Q412 676 440 656T468 597Q468 582 456 564T412 531T319 513L259 510Q259 510 259 518T259 526H312Q339 526 354 543T369 594Q369 626 358 643T326 661Q316 661 312 656T308 636V404Q308
381 312 375T331 367V352Q317 352 299 352T260 353Q238 353 217 353T184 352V367Q198 369 202 375T207 404V623Q207 647 203 653T184 661V676Q196 675 216 675T256 675Q284 675 308 675T342 676Z" />
<glyph unicode="&#xaf;" horiz-adv-x="452" d="M402 712V687H50V712H402Z" />
<glyph unicode="&#xb0;" horiz-adv-x="297" d="M148 820Q197 820 233 788T270 700Q270 644 234 612T148 579Q100 579 64 611T27 700Q27 756 63 788T148 820ZM148 803Q126 803 104 791T67 756T52 699Q52 664 66 641T103 607T148 596Q171 596 193 607T230 641T245
699Q245 733 230 756T193 791T148 803Z" />
<glyph unicode="&#xb1;" horiz-adv-x="567" d="M533 30V0H32V30H533ZM303 606V370H535V340H303V105H267V340H34V370H267V606H303Z" />
<glyph unicode="&#xb2;" horiz-adv-x="359" d="M183 755Q233 755 266 737T300 681Q300 656 286 637T247 601T194 567T133 529H270Q294 529 302 537T317 563L334 560Q327 522 324 493T319 435Q310 437 301 437T281 438H21V458Q42 476 70 497T124 542T169 596T187
661Q187 684 173 697T130 711Q105 711 85 701T47 667L32 675Q51 706 86 730T183 755Z" />
<glyph unicode="&#xb3;" horiz-adv-x="334" d="M173 756Q224 756 260 738T296 684Q296 649 261 625T163 589Q203 592 236 581T289 549T309 497Q309 460 283 433T215 389T121 362T19 348V365Q74 373 114 391T176 438T198 505Q198 534 185 555T145 578Q134 573 126
569T108 564Q93 564 93 576Q93 587 106 589T137 590Q165 604 174 626T183 663Q183 686 168 701T123 716Q98 716 76 703T40 668L25 676Q42 708 76 732T173 756Z" />
<glyph unicode="&#xb4;" horiz-adv-x="304" d="M233 820Q253 804 253 777T237 729Q221 709 198 695T141 660T61 599L50 608Q79 665 90 702T109 766T135 812Q151 831 180 835T233 820Z" />
<glyph unicode="&#xb6;" horiz-adv-x="790" d="M439 709Q528 709 603 707T750 708V689Q707 687 695 671T683 621V-75Q683 -111 688 -129T708 -153T754 -161V-181Q719 -179 663 -179T547 -178Q496 -178 451 -178T379 -181V-161Q421 -159 443 -150T472 -121T480
-65V-13Q356 -13 271 15T132 93T55 212T31 360Q31 462 79 541T219 664T439 709ZM481 656Q476 656 465 618T442 516T429 376Q343 376 273 371T162 360T120 351Q120 348 161 342T273 332T429 327Q431 249 442 186T464 85T481 48Q481 48 481 80T481 167T481 285T481
415T481 534T481 621T481 656Z" />
<glyph unicode="&#xb7;" horiz-adv-x="288" d="M144 376Q191 376 217 355T243 290Q243 247 217 226T144 204Q96 204 71 225T45 290Q45 333 70 354T144 376Z" />
<glyph unicode="&#xb8;" horiz-adv-x="348" d="M162 0L145 -60Q163 -52 182 -49T224 -45Q262 -45 280 -61T298 -103Q298 -132 278 -151T222 -179T140 -188Q113 -188 90 -185T50 -175L56 -157Q63 -158 76 -160T104 -162Q119 -162 133 -158T156 -146T166 -124Q166
-99 138 -99Q130 -99 121 -100T105 -106L135 0H162Z" />
<glyph unicode="&#xb9;" horiz-adv-x="297" d="M220 753V507Q220 478 235 468T287 458V437Q268 438 233 438T160 439Q122 439 87 439T33 437V458Q68 458 87 468T107 507V636Q107 680 90 690T26 701V722Q95 723 138 730T220 753Z" />
<glyph unicode="&#xba;" horiz-adv-x="478" d="M240 722Q301 722 347 702T420 641T446 541Q446 482 420 442T348 381T240 360Q178 360 131 380T58 441T32 541Q32 601 58 641T131 701T240 722ZM239 704Q221 704 210 666T199 541Q199 454 210 416T239 378Q257 378
268 416T279 541Q279 628 268 666T239 704Z" />
<glyph unicode="&#xbb;" horiz-adv-x="614" d="M286 535Q356 463 430 396T592 269V249Q504 191 430 124T286 -16L272 -12Q279 20 292 58T323 135T358 206T393 259Q377 279 359 312T323 383T293 461T272 531L286 535ZM70 495Q131 435 195 377T336 269V249Q260 200
196 142T70 24L56 28Q63 64 78 109T112 196T147 259Q131 282 113 323T79 409T56 491L70 495Z" />
<glyph unicode="&#xbc;" horiz-adv-x="720" d="M673 824L692 811L107 -55L88 -42L673 824ZM235 753V507Q235 478 250 468T302 458V437Q283 438 248 438T175 439Q137 439 102 439T48 437V458Q83 458 102 468T122 507V636Q122 680 105 690T41 701V722Q110 723 153
730T235 753ZM548 318L556 303L318 47L350 87H587Q611 87 619 95T634 121L651 118Q647 105 644 84T640 44T637 15Q628 17 619 17T599 18H289V39L548 318ZM569 318V-99H486V237L548 318H569Z" />
<glyph unicode="&#xbd;" horiz-adv-x="734" d="M657 824L676 811L91 -55L72 -42L657 824ZM232 753V507Q232 478 247 468T299 458V437Q280 438 245 438T172 439Q134 439 99 439T45 437V458Q80 458 99 468T119 507V636Q119 680 102 690T38 701V722Q107 723 150 730T232
753ZM551 318Q601 318 634 300T668 244Q668 219 654 200T615 164T562 130T501 92H638Q662 92 670 100T685 126L702 123Q695 85 692 56T687 -2Q678 0 669 0T649 1H389V21Q410 39 438 60T492 105T537 159T555 224Q555 247 541 260T498 274Q473 274 453 264T415 230L400
238Q419 269 454 293T551 318Z" />
<glyph unicode="&#xbe;" horiz-adv-x="758" d="M711 824L730 811L145 -55L126 -42L711 824ZM193 756Q244 756 280 738T316 684Q316 649 281 625T183 589Q223 592 256 581T309 549T329 497Q329 460 303 433T235 389T141 362T39 348V365Q94 373 134 391T196 438T218
505Q218 534 205 555T165 578Q154 573 146 569T128 564Q113 564 113 576Q113 587 126 589T157 590Q185 604 194 626T203 663Q203 686 188 701T143 716Q118 716 96 703T60 668L45 676Q62 708 96 732T193 756ZM593 318L601 303L363 47L395 87H632Q656 87 664 95T679
121L696 118Q692 105 689 84T685 44T682 15Q673 17 664 17T644 18H334V39L593 318ZM614 318V-99H531V237L593 318H614Z" />
<glyph unicode="&#xbf;" horiz-adv-x="536" d="M322 325V185Q273 161 248 131T215 65T206 -9Q206 -93 237 -130T317 -168Q346 -168 366 -163T396 -149Q364 -137 348 -116T331 -61Q331 -26 357 -2T427 23Q465 23 487 -1T509 -57Q509 -94 491 -116T445 -153Q420
-167 380 -177T287 -188Q210 -188 151 -167T60 -105T27 -8Q27 43 61 83T158 151T302 194V325H322ZM312 534Q359 534 385 513T411 448Q411 405 385 384T312 362Q264 362 239 383T213 448Q213 491 238 512T312 534Z" />
<glyph unicode="&#xc0;" horiz-adv-x="692" d="M398 708L640 84Q654 50 670 36T699 20V0Q663 2 615 2T517 3Q466 3 421 3T349 0V20Q400 22 413 37T407 104L247 547L267 582L129 223Q104 158 99 119T103 58T135 29T187 20V0Q150 2 121 2T56 3Q37 3 16 3T-21 0V20Q2
24 24 49T71 137L293 708Q317 706 345 706T398 708ZM433 288V268H135L145 288H433ZM254 939Q279 928 296 907T338 856T412 784L405 772Q347 790 308 796T242 807T192 823Q168 835 159 859T160 908Q174 937 203 943T254 939Z" />
<glyph unicode="&#xc1;" horiz-adv-x="692" d="M398 708L640 84Q654 50 670 36T699 20V0Q663 2 615 2T517 3Q466 3 421 3T349 0V20Q400 22 413 37T407 104L247 547L267 582L129 223Q104 158 99 119T103 58T135 29T187 20V0Q150 2 121 2T56 3Q37 3 16 3T-21 0V20Q2
24 24 49T71 137L293 708Q317 706 345 706T398 708ZM433 288V268H135L145 288H433ZM422 939Q444 950 473 944T516 908Q527 884 518 860T484 823Q461 811 434 807T369 797T271 772L264 784Q313 825 338 855T380 907T422 939Z" />
<glyph unicode="&#xc2;" horiz-adv-x="692" d="M398 708L640 84Q654 50 670 36T699 20V0Q663 2 615 2T517 3Q466 3 421 3T349 0V20Q400 22 413 37T407 104L247 547L267 582L129 223Q104 158 99 119T103 58T135 29T187 20V0Q150 2 121 2T56 3Q37 3 16 3T-21 0V20Q2
24 24 49T71 137L293 708Q317 706 345 706T398 708ZM433 288V268H135L145 288H433ZM354 956Q389 909 447 863T571 784L566 769Q497 780 431 797T325 830Q292 814 237 797T124 769L119 784Q184 815 241 861T336 956H354Z" />
<glyph unicode="&#xc3;" horiz-adv-x="692" d="M398 708L640 84Q654 50 670 36T699 20V0Q663 2 615 2T517 3Q466 3 421 3T349 0V20Q400 22 413 37T407 104L247 547L267 582L129 223Q104 158 99 119T103 58T135 29T187 20V0Q150 2 121 2T56 3Q37 3 16 3T-21 0V20Q2
24 24 49T71 137L293 708Q317 706 345 706T398 708ZM433 288V268H135L145 288H433ZM252 938Q292 938 320 928T370 905T417 882T473 872Q500 872 524 884T570 925L584 918Q564 836 524 801T436 765Q396 765 368 775T317 798T270 822T214 832Q187 832 163 820T117
778L103 785Q123 867 164 902T252 938Z" />
<glyph unicode="&#xc4;" horiz-adv-x="692" d="M398 708L640 84Q654 50 670 36T699 20V0Q663 2 615 2T517 3Q466 3 421 3T349 0V20Q400 22 413 37T407 104L247 547L267 582L129 223Q104 158 99 119T103 58T135 29T187 20V0Q150 2 121 2T56 3Q37 3 16 3T-21 0V20Q2
24 24 49T71 137L293 708Q317 706 345 706T398 708ZM433 288V268H135L145 288H433ZM474 936Q509 936 535 910T561 849Q561 813 535 788T474 762Q438 762 413 787T387 849Q387 884 412 910T474 936ZM216 936Q251 936 277 910T303 849Q303 813 277 788T216 762Q180
762 155 787T129 849Q129 884 154 910T216 936Z" />
<glyph unicode="&#xc5;" horiz-adv-x="692" d="M398 708L640 84Q654 50 670 36T699 20V0Q663 2 615 2T517 3Q466 3 421 3T349 0V20Q400 22 413 37T407 104L247 547L267 582L129 223Q104 158 99 119T103 58T135 29T187 20V0Q150 2 121 2T56 3Q37 3 16 3T-21 0V20Q2
24 24 49T71 137L293 708Q317 706 345 706T398 708ZM433 288V268H135L145 288H433ZM345 945Q392 945 427 918T462 844Q462 797 427 770T345 742Q299 742 264 769T229 844Q229 891 264 918T345 945ZM345 924Q314 924 286 903T257 843Q257 803 285 783T345 763Q377
763 405 783T434 843Q434 882 406 903T345 924Z" />
<glyph unicode="&#xc6;" horiz-adv-x="912" d="M473 772L90 104Q63 57 76 40T141 20V0Q126 2 102 2T50 3Q32 3 14 3T-17 0V20Q-1 21 15 34T52 84L449 772H473ZM849 708Q845 664 844 623T842 560Q842 539 843 520T845 488H822Q812 563 790 606T738 667T678 685H665Q636
685 621 680T600 657T594 602V106Q594 70 599 52T620 29T665 23H698Q723 23 753 43T808 110T842 240H865Q862 204 862 148Q862 126 863 85T869 0Q818 2 754 2T640 3Q607 3 552 3T436 3T320 0V20Q351 22 366 28T386 52T391 106V602Q391 639 386 656T366 680T320
688V708Q374 707 435 706T552 705T640 705Q686 705 744 705T849 708ZM424 366V346H217L227 366H424ZM724 366Q724 366 724 356T724 346H564Q564 346 564 356T564 366H724ZM753 488Q749 435 749 407T750 356Q750 333 751 305T756 224H733Q728 254 718 282T689 328T634
346V366Q660 366 677 378T704 410T720 451T730 488H753Z" />
<glyph unicode="&#xc7;" horiz-adv-x="717" d="M414 722Q480 722 522 703T598 657Q618 642 628 653T643 708H666Q664 668 663 611T662 458H639Q635 506 626 543T599 610T547 661Q526 675 503 683T454 691Q397 691 360 660T303 578T274 468T266 352Q266 296 274
237T302 127T360 45T454 13Q479 13 502 21T547 43Q597 74 614 126T639 260H662Q662 162 663 102T666 0H643Q639 43 630 54T598 51Q561 25 520 6T413 -14Q300 -14 215 29T83 153T36 348Q36 460 84 544T218 675T414 722ZM431 5L412 -60Q432 -52 454 -49T501 -45Q544
-45 564 -61T585 -103Q585 -132 561 -151T494 -179T397 -188Q367 -188 341 -185T297 -175L303 -157Q311 -158 327 -160T361 -162Q383 -162 404 -158T439 -146T453 -124Q453 -110 440 -105T405 -99Q397 -99 388 -100T372 -106L404 5H431Z" />
<glyph unicode="&#xc8;" horiz-adv-x="650" d="M587 708Q583 658 582 612T580 540Q580 519 581 500T583 468H560Q548 551 520 598T455 665T376 685H363Q337 685 324 681T307 663T302 622V86Q302 59 306 46T324 28T363 23H396Q429 23 465 44T533 118T580 260H603Q600
224 600 168Q600 143 601 97T607 0Q556 2 492 2T378 3Q351 3 310 3T220 3T122 2T28 0V20Q59 22 74 28T94 52T99 106V602Q99 639 94 656T74 680T28 688V708Q72 707 121 707T219 706T309 705T378 705Q424 705 482 705T587 708ZM442 366Q442 366 442 356T442 346H272Q272
346 272 356T272 366H442ZM471 498Q467 441 467 411T468 356Q468 331 469 301T474 214H451Q445 251 427 281T379 328T312 346V366Q340 366 363 378T403 410T432 453T448 498H471ZM229 939Q254 928 271 907T313 856T387 784L380 772Q322 790 283 796T217 807T167
823Q143 835 134 859T135 908Q149 937 178 943T229 939Z" />
<glyph unicode="&#xc9;" horiz-adv-x="650" d="M587 708Q583 658 582 612T580 540Q580 519 581 500T583 468H560Q548 551 520 598T455 665T376 685H363Q337 685 324 681T307 663T302 622V86Q302 59 306 46T324 28T363 23H396Q429 23 465 44T533 118T580 260H603Q600
224 600 168Q600 143 601 97T607 0Q556 2 492 2T378 3Q351 3 310 3T220 3T122 2T28 0V20Q59 22 74 28T94 52T99 106V602Q99 639 94 656T74 680T28 688V708Q72 707 121 707T219 706T309 705T378 705Q424 705 482 705T587 708ZM442 366Q442 366 442 356T442 346H272Q272
346 272 356T272 366H442ZM471 498Q467 441 467 411T468 356Q468 331 469 301T474 214H451Q445 251 427 281T379 328T312 346V366Q340 366 363 378T403 410T432 453T448 498H471ZM397 939Q419 950 448 944T491 908Q502 884 493 860T459 823Q436 811 409 807T344
797T246 772L239 784Q288 825 313 855T355 907T397 939Z" />
<glyph unicode="&#xca;" horiz-adv-x="650" d="M587 708Q583 658 582 612T580 540Q580 519 581 500T583 468H560Q548 551 520 598T455 665T376 685H363Q337 685 324 681T307 663T302 622V86Q302 59 306 46T324 28T363 23H396Q429 23 465 44T533 118T580 260H603Q600
224 600 168Q600 143 601 97T607 0Q556 2 492 2T378 3Q351 3 310 3T220 3T122 2T28 0V20Q59 22 74 28T94 52T99 106V602Q99 639 94 656T74 680T28 688V708Q72 707 121 707T219 706T309 705T378 705Q424 705 482 705T587 708ZM442 366Q442 366 442 356T442 346H272Q272
346 272 356T272 366H442ZM471 498Q467 441 467 411T468 356Q468 331 469 301T474 214H451Q445 251 427 281T379 328T312 346V366Q340 366 363 378T403 410T432 453T448 498H471ZM329 956Q364 909 422 863T546 784L541 769Q472 780 406 797T300 830Q267 814 212
797T99 769L94 784Q159 815 216 861T311 956H329Z" />
<glyph unicode="&#xcb;" horiz-adv-x="650" d="M587 708Q583 658 582 612T580 540Q580 519 581 500T583 468H560Q548 551 520 598T455 665T376 685H363Q337 685 324 681T307 663T302 622V86Q302 59 306 46T324 28T363 23H396Q429 23 465 44T533 118T580 260H603Q600
224 600 168Q600 143 601 97T607 0Q556 2 492 2T378 3Q351 3 310 3T220 3T122 2T28 0V20Q59 22 74 28T94 52T99 106V602Q99 639 94 656T74 680T28 688V708Q72 707 121 707T219 706T309 705T378 705Q424 705 482 705T587 708ZM442 366Q442 366 442 356T442 346H272Q272
346 272 356T272 366H442ZM471 498Q467 441 467 411T468 356Q468 331 469 301T474 214H451Q445 251 427 281T379 328T312 346V366Q340 366 363 378T403 410T432 453T448 498H471ZM449 936Q484 936 510 910T536 849Q536 813 510 788T449 762Q413 762 388 787T362
849Q362 884 387 910T449 936ZM191 936Q226 936 252 910T278 849Q278 813 252 788T191 762Q155 762 130 787T104 849Q104 884 129 910T191 936Z" />
<glyph unicode="&#xcc;" horiz-adv-x="401" d="M373 708V688Q343 687 328 681T307 657T302 602V106Q302 70 307 52T328 28T373 20V0Q344 2 299 2T206 3Q152 3 105 3T28 0V20Q59 22 74 28T94 52T99 106V602Q99 639 94 656T74 680T28 688V708Q57 707 104 706T206
705Q253 705 298 706T373 708ZM115 939Q140 928 157 907T199 856T273 784L266 772Q208 790 169 796T103 807T53 823Q29 835 20 859T21 908Q35 937 64 943T115 939Z" />
<glyph unicode="&#xcd;" horiz-adv-x="401" d="M373 708V688Q343 687 328 681T307 657T302 602V106Q302 70 307 52T328 28T373 20V0Q344 2 299 2T206 3Q152 3 105 3T28 0V20Q59 22 74 28T94 52T99 106V602Q99 639 94 656T74 680T28 688V708Q57 707 104 706T206
705Q253 705 298 706T373 708ZM283 939Q305 950 334 944T377 908Q388 884 379 860T345 823Q322 811 295 807T230 797T132 772L125 784Q174 825 199 855T241 907T283 939Z" />
<glyph unicode="&#xce;" horiz-adv-x="401" d="M373 708V688Q343 687 328 681T307 657T302 602V106Q302 70 307 52T328 28T373 20V0Q344 2 299 2T206 3Q152 3 105 3T28 0V20Q59 22 74 28T94 52T99 106V602Q99 639 94 656T74 680T28 688V708Q57 707 104 706T206
705Q253 705 298 706T373 708ZM471 956Q506 909 564 863T688 784L683 769Q614 780 548 797T442 830Q409 814 354 797T241 769L236 784Q301 815 358 861T453 956H471Z" />
<glyph unicode="&#xcf;" horiz-adv-x="401" d="M373 708V688Q343 687 328 681T307 657T302 602V106Q302 70 307 52T328 28T373 20V0Q344 2 299 2T206 3Q152 3 105 3T28 0V20Q59 22 74 28T94 52T99 106V602Q99 639 94 656T74 680T28 688V708Q57 707 104 706T206
705Q253 705 298 706T373 708ZM335 936Q370 936 396 910T422 849Q422 813 396 788T335 762Q299 762 274 787T248 849Q248 884 273 910T335 936ZM77 936Q112 936 138 910T164 849Q164 813 138 788T77 762Q41 762 16 787T-10 849Q-10 884 15 910T77 936Z" />
<glyph unicode="&#xd0;" horiz-adv-x="811" d="M361 708Q571 708 672 619T774 362Q774 253 724 172T580 45T352 0Q336 0 310 1T254 2T202 3Q152 3 105 3T28 0V20Q59 22 74 28T94 52T99 106V602Q99 639 94 656T74 680T28 688V708Q57 707 104 706T200 705Q237 706
283 707T361 708ZM376 690Q330 690 316 673T302 604V104Q302 52 316 35T377 18Q445 18 486 57T545 173T564 358Q564 470 545 543T484 653T376 690ZM412 366V346H8V366H412Z" />
<glyph unicode="&#xd1;" horiz-adv-x="732" d="M708 708V688Q678 682 663 667T642 621T637 532V0Q622 2 605 2T567 0L124 484V196Q124 129 129 94T156 43T225 20V0Q205 2 173 2T113 3Q91 3 68 3T30 0V20Q61 27 76 41T96 88T101 176V602Q101 639 96 656T76 680T30
688V708Q45 707 68 706T113 705Q138 705 162 706T205 708L614 276V512Q614 579 609 614T582 666T513 688V708Q533 707 565 706T625 705Q648 705 670 706T708 708ZM289 938Q329 938 357 928T407 905T454 882T510 872Q537 872 561 884T607 925L621 918Q601 836 561
801T473 765Q433 765 405 775T354 798T307 822T251 832Q224 832 200 820T154 778L140 785Q160 867 201 902T289 938Z" />
<glyph unicode="&#xd2;" horiz-adv-x="827" d="M414 722Q527 722 612 679T744 556T791 360Q791 248 743 164T610 33T413 -14Q300 -14 215 29T83 153T36 348Q36 460 84 544T218 675T414 722ZM410 704Q360 704 323 659T266 535T246 352Q246 246 269 168T331 47T417
4Q467 4 504 49T561 173T581 356Q581 463 558 541T496 661T410 704ZM321 939Q346 928 363 907T405 856T479 784L472 772Q414 790 375 796T309 807T259 823Q235 835 226 859T227 908Q241 937 270 943T321 939Z" />
<glyph unicode="&#xd3;" horiz-adv-x="827" d="M414 722Q527 722 612 679T744 556T791 360Q791 248 743 164T610 33T413 -14Q300 -14 215 29T83 153T36 348Q36 460 84 544T218 675T414 722ZM410 704Q360 704 323 659T266 535T246 352Q246 246 269 168T331 47T417
4Q467 4 504 49T561 173T581 356Q581 463 558 541T496 661T410 704ZM489 939Q511 950 540 944T583 908Q594 884 585 860T551 823Q528 811 501 807T436 797T338 772L331 784Q380 825 405 855T447 907T489 939Z" />
<glyph unicode="&#xd4;" horiz-adv-x="827" d="M414 722Q527 722 612 679T744 556T791 360Q791 248 743 164T610 33T413 -14Q300 -14 215 29T83 153T36 348Q36 460 84 544T218 675T414 722ZM410 704Q360 704 323 659T266 535T246 352Q246 246 269 168T331 47T417
4Q467 4 504 49T561 173T581 356Q581 463 558 541T496 661T410 704ZM421 956Q456 909 514 863T638 784L633 769Q564 780 498 797T392 830Q359 814 304 797T191 769L186 784Q251 815 308 861T403 956H421Z" />
<glyph unicode="&#xd5;" horiz-adv-x="827" d="M414 722Q527 722 612 679T744 556T791 360Q791 248 743 164T610 33T413 -14Q300 -14 215 29T83 153T36 348Q36 460 84 544T218 675T414 722ZM410 704Q360 704 323 659T266 535T246 352Q246 246 269 168T331 47T417
4Q467 4 504 49T561 173T581 356Q581 463 558 541T496 661T410 704ZM319 938Q359 938 387 928T437 905T484 882T540 872Q567 872 591 884T637 925L651 918Q631 836 591 801T503 765Q463 765 435 775T384 798T337 822T281 832Q254 832 230 820T184 778L170 785Q190
867 231 902T319 938Z" />
<glyph unicode="&#xd6;" horiz-adv-x="827" d="M414 722Q527 722 612 679T744 556T791 360Q791 248 743 164T610 33T413 -14Q300 -14 215 29T83 153T36 348Q36 460 84 544T218 675T414 722ZM410 704Q360 704 323 659T266 535T246 352Q246 246 269 168T331 47T417
4Q467 4 504 49T561 173T581 356Q581 463 558 541T496 661T410 704ZM541 936Q576 936 602 910T628 849Q628 813 602 788T541 762Q505 762 480 787T454 849Q454 884 479 910T541 936ZM283 936Q318 936 344 910T370 849Q370 813 344 788T283 762Q247 762 222 787T196
849Q196 884 221 910T283 936Z" />
<glyph unicode="&#xd7;" horiz-adv-x="482" d="M67 552L242 377L415 550L437 528L264 356L437 183L415 161L242 334L68 160L46 182L220 355L45 530L67 552Z" />
<glyph unicode="&#xd8;" horiz-adv-x="827" d="M414 722Q527 722 612 679T744 556T791 360Q791 248 743 164T610 33T413 -14Q300 -14 215 29T83 153T36 348Q36 460 84 544T218 675T414 722ZM410 704Q360 704 323 659T266 535T246 352Q246 246 269 168T331 47T417
4Q467 4 504 49T561 173T581 356Q581 463 558 541T496 661T410 704ZM572 640L587 620L249 75L231 93L572 640ZM216 93L234 75L120 -83L99 -69L216 93ZM676 783L695 770L594 620L579 640L676 783Z" />
<glyph unicode="&#xd9;" horiz-adv-x="693" d="M681 708V688Q651 682 636 667T615 621T610 532V291Q610 229 602 174T569 79Q543 36 492 11T354 -14Q308 -14 257 -4T166 34Q132 59 114 95T90 179T84 288V602Q84 639 79 656T59 680T13 688V708Q42 707 89 706T189
705Q241 705 289 706T368 708V688Q334 687 317 681T293 657T287 602V194Q287 145 295 112T318 58T357 30T412 21Q479 21 517 53T571 144T587 280V512Q587 579 582 614T555 666T486 688V708Q506 707 538 706T598 705Q621 705 643 706T681 708ZM270 939Q295 928 312
907T354 856T428 784L421 772Q363 790 324 796T258 807T208 823Q184 835 175 859T176 908Q190 937 219 943T270 939Z" />
<glyph unicode="&#xda;" horiz-adv-x="693" d="M681 708V688Q651 682 636 667T615 621T610 532V291Q610 229 602 174T569 79Q543 36 492 11T354 -14Q308 -14 257 -4T166 34Q132 59 114 95T90 179T84 288V602Q84 639 79 656T59 680T13 688V708Q42 707 89 706T189
705Q241 705 289 706T368 708V688Q334 687 317 681T293 657T287 602V194Q287 145 295 112T318 58T357 30T412 21Q479 21 517 53T571 144T587 280V512Q587 579 582 614T555 666T486 688V708Q506 707 538 706T598 705Q621 705 643 706T681 708ZM438 939Q460 950 489
944T532 908Q543 884 534 860T500 823Q477 811 450 807T385 797T287 772L280 784Q329 825 354 855T396 907T438 939Z" />
<glyph unicode="&#xdb;" horiz-adv-x="693" d="M681 708V688Q651 682 636 667T615 621T610 532V291Q610 229 602 174T569 79Q543 36 492 11T354 -14Q308 -14 257 -4T166 34Q132 59 114 95T90 179T84 288V602Q84 639 79 656T59 680T13 688V708Q42 707 89 706T189
705Q241 705 289 706T368 708V688Q334 687 317 681T293 657T287 602V194Q287 145 295 112T318 58T357 30T412 21Q479 21 517 53T571 144T587 280V512Q587 579 582 614T555 666T486 688V708Q506 707 538 706T598 705Q621 705 643 706T681 708ZM370 956Q405 909 463
863T587 784L582 769Q513 780 447 797T341 830Q308 814 253 797T140 769L135 784Q200 815 257 861T352 956H370Z" />
<glyph unicode="&#xdc;" horiz-adv-x="693" d="M681 708V688Q651 682 636 667T615 621T610 532V291Q610 229 602 174T569 79Q543 36 492 11T354 -14Q308 -14 257 -4T166 34Q132 59 114 95T90 179T84 288V602Q84 639 79 656T59 680T13 688V708Q42 707 89 706T189
705Q241 705 289 706T368 708V688Q334 687 317 681T293 657T287 602V194Q287 145 295 112T318 58T357 30T412 21Q479 21 517 53T571 144T587 280V512Q587 579 582 614T555 666T486 688V708Q506 707 538 706T598 705Q621 705 643 706T681 708ZM490 936Q525 936 551
910T577 849Q577 813 551 788T490 762Q454 762 429 787T403 849Q403 884 428 910T490 936ZM232 936Q267 936 293 910T319 849Q319 813 293 788T232 762Q196 762 171 787T145 849Q145 884 170 910T232 936Z" />
<glyph unicode="&#xdd;" horiz-adv-x="644" d="M636 709V689Q613 678 587 648T530 556L350 199H283L49 632Q32 664 17 676T-9 688V709Q22 706 55 705T129 703Q180 703 239 705T349 709V688Q324 688 303 686T273 677T273 650L424 360L377 298L461 466Q503 549 507
597T490 666T428 689V709Q466 708 495 707T559 706Q579 706 600 707T636 709ZM437 393V106Q437 70 442 52T463 28T508 20V0Q479 2 431 2T336 3Q285 3 238 3T163 0V20Q194 22 209 28T229 52T234 106V311L343 249L437 393ZM425 939Q447 950 476 944T519 908Q530 884
521 860T487 823Q464 811 437 807T372 797T274 772L267 784Q316 825 341 855T383 907T425 939Z" />
<glyph unicode="&#xde;" horiz-adv-x="648" d="M334 573Q436 573 502 553T602 490T635 383Q635 338 620 297T569 223T471 171T312 152H216Q216 152 216 162T216 172H302Q353 172 379 199T415 273T425 372Q425 461 400 507T309 554Q288 554 264 554T218 553T185
552L183 571Q230 571 273 572T334 573ZM373 708V688Q343 687 328 681T307 657T302 602V106Q302 70 307 52T328 28T373 20V0Q344 2 299 2T206 3Q152 3 105 3T28 0V20Q59 22 74 28T94 52T99 106V602Q99 639 94 656T74 680T28 688V708Q57 707 104 706T206 705Q253
705 298 706T373 708Z" />
<glyph unicode="&#xdf;" horiz-adv-x="705" d="M355 782Q468 782 528 738T588 631Q588 594 570 562T519 505T443 461T348 433Q464 420 539 384T652 297T689 183Q689 118 654 74T562 8T440 -14Q397 -14 362 -4T307 32T286 100Q286 143 308 170T370 197Q407 197
428 174T450 115Q450 75 426 49T375 10Q381 7 388 6T404 4Q439 4 460 27T490 87T500 171Q500 240 483 285T439 356T383 397T331 420Q322 416 313 413T297 409Q290 409 284 413T277 425Q277 443 299 443Q307 443 316 441T331 436Q382 469 400 510T418 616Q418 693
397 730T335 767Q297 767 280 744T258 669T254 533V-11Q223 -5 189 -2T115 3Q92 4 73 3T18 0V21Q49 21 61 36T74 93V512Q74 600 105 660T200 751T355 782Z" />
<glyph unicode="&#xe0;" horiz-adv-x="531" d="M156 -7Q109 -7 79 11T36 58T22 119Q22 161 41 187T90 230T155 258T219 279T269 304T288 342V431Q288 447 283 466T262 499T217 513Q201 513 187 509T161 496Q196 483 212 460T228 408Q228 368 200 345T134 322Q94
322 72 347T50 409Q50 440 65 461T112 501Q142 518 184 525T272 533Q321 533 363 524T435 483Q456 461 462 428T468 343V75Q468 50 471 41T484 32Q492 32 499 37T514 47L524 30Q502 11 470 2T401 -7Q358 -7 335 3T302 31T291 69Q270 36 239 15T156 -7ZM251 73Q262
73 270 76T288 90V301Q281 288 270 276T246 250T224 222T207 188T200 142Q200 104 214 89T251 73ZM142 820Q165 841 194 836T240 812Q258 792 266 766T285 703T325 608L314 599Q267 639 234 659T178 694T138 729Q121 750 121 776T142 820Z" />
<glyph unicode="&#xe1;" horiz-adv-x="531" d="M156 -7Q109 -7 79 11T36 58T22 119Q22 161 41 187T90 230T155 258T219 279T269 304T288 342V431Q288 447 283 466T262 499T217 513Q201 513 187 509T161 496Q196 483 212 460T228 408Q228 368 200 345T134 322Q94
322 72 347T50 409Q50 440 65 461T112 501Q142 518 184 525T272 533Q321 533 363 524T435 483Q456 461 462 428T468 343V75Q468 50 471 41T484 32Q492 32 499 37T514 47L524 30Q502 11 470 2T401 -7Q358 -7 335 3T302 31T291 69Q270 36 239 15T156 -7ZM251 73Q262
73 270 76T288 90V301Q281 288 270 276T246 250T224 222T207 188T200 142Q200 104 214 89T251 73ZM380 820Q400 804 400 777T384 729Q368 709 345 695T288 660T208 599L197 608Q226 665 237 702T256 766T282 812Q298 831 327 835T380 820Z" />
<glyph unicode="&#xe2;" horiz-adv-x="531" d="M156 -7Q109 -7 79 11T36 58T22 119Q22 161 41 187T90 230T155 258T219 279T269 304T288 342V431Q288 447 283 466T262 499T217 513Q201 513 187 509T161 496Q196 483 212 460T228 408Q228 368 200 345T134 322Q94
322 72 347T50 409Q50 440 65 461T112 501Q142 518 184 525T272 533Q321 533 363 524T435 483Q456 461 462 428T468 343V75Q468 50 471 41T484 32Q492 32 499 37T514 47L524 30Q502 11 470 2T401 -7Q358 -7 335 3T302 31T291 69Q270 36 239 15T156 -7ZM251 73Q262
73 270 76T288 90V301Q281 288 270 276T246 250T224 222T207 188T200 142Q200 104 214 89T251 73ZM278 832Q309 773 358 716T465 620L457 606Q397 617 341 633T249 666Q221 650 175 634T81 606L73 620Q129 657 178 714T260 832H278Z" />
<glyph unicode="&#xe3;" horiz-adv-x="531" d="M156 -7Q109 -7 79 11T36 58T22 119Q22 161 41 187T90 230T155 258T219 279T269 304T288 342V431Q288 447 283 466T262 499T217 513Q201 513 187 509T161 496Q196 483 212 460T228 408Q228 368 200 345T134 322Q94
322 72 347T50 409Q50 440 65 461T112 501Q142 518 184 525T272 533Q321 533 363 524T435 483Q456 461 462 428T468 343V75Q468 50 471 41T484 32Q492 32 499 37T514 47L524 30Q502 11 470 2T401 -7Q358 -7 335 3T302 31T291 69Q270 36 239 15T156 -7ZM251 73Q262
73 270 76T288 90V301Q281 288 270 276T246 250T224 222T207 188T200 142Q200 104 214 89T251 73ZM194 798Q227 798 249 788T291 765T329 742T375 732Q396 732 415 744T452 785L466 778Q449 691 414 653T338 615Q305 615 282 625T241 648T202 672T156 682Q135 682
116 670T79 628L65 635Q82 722 117 760T194 798Z" />
<glyph unicode="&#xe4;" horiz-adv-x="531" d="M156 -7Q109 -7 79 11T36 58T22 119Q22 161 41 187T90 230T155 258T219 279T269 304T288 342V431Q288 447 283 466T262 499T217 513Q201 513 187 509T161 496Q196 483 212 460T228 408Q228 368 200 345T134 322Q94
322 72 347T50 409Q50 440 65 461T112 501Q142 518 184 525T272 533Q321 533 363 524T435 483Q456 461 462 428T468 343V75Q468 50 471 41T484 32Q492 32 499 37T514 47L524 30Q502 11 470 2T401 -7Q358 -7 335 3T302 31T291 69Q270 36 239 15T156 -7ZM251 73Q262
73 270 76T288 90V301Q281 288 270 276T246 250T224 222T207 188T200 142Q200 104 214 89T251 73ZM389 772Q424 772 450 746T476 685Q476 649 450 624T389 598Q353 598 328 623T302 685Q302 720 327 746T389 772ZM151 772Q186 772 212 746T238 685Q238 649 212
624T151 598Q115 598 90 623T64 685Q64 720 89 746T151 772Z" />
<glyph unicode="&#xe5;" horiz-adv-x="531" d="M156 -7Q109 -7 79 11T36 58T22 119Q22 161 41 187T90 230T155 258T219 279T269 304T288 342V431Q288 447 283 466T262 499T217 513Q201 513 187 509T161 496Q196 483 212 460T228 408Q228 368 200 345T134 322Q94
322 72 347T50 409Q50 440 65 461T112 501Q142 518 184 525T272 533Q321 533 363 524T435 483Q456 461 462 428T468 343V75Q468 50 471 41T484 32Q492 32 499 37T514 47L524 30Q502 11 470 2T401 -7Q358 -7 335 3T302 31T291 69Q270 36 239 15T156 -7ZM251 73Q262
73 270 76T288 90V301Q281 288 270 276T246 250T224 222T207 188T200 142Q200 104 214 89T251 73ZM269 801Q316 801 351 774T386 700Q386 653 351 626T269 598Q223 598 188 625T153 700Q153 747 188 774T269 801ZM269 780Q238 780 210 759T181 699Q181 659 209
639T269 619Q301 619 329 639T358 699Q358 738 330 759T269 780Z" />
<glyph unicode="&#xe6;" horiz-adv-x="738" d="M151 -7Q83 -7 53 29T22 114Q22 157 41 184T90 228T155 256T219 279T269 304T288 342V431Q288 447 283 466T262 499T217 513Q201 513 187 509T161 496Q196 483 212 460T228 408Q228 368 200 345T134 322Q94 322 72
347T50 409Q50 440 65 461T112 501Q142 518 184 525T272 533Q321 533 363 524T435 483Q456 461 462 428T468 343L324 115Q300 70 273 44T216 5T151 -7ZM248 73Q268 73 284 87T316 138L295 309Q285 293 273 280T247 255T224 227T207 193T200 145Q200 105 214 89T248
73ZM507 -14Q446 -14 396 12T316 98T286 259Q286 336 314 398T397 496T533 533Q616 533 664 482T712 309H419L417 328H566Q567 377 563 418T550 485T526 510Q503 510 489 468T470 322L474 314Q473 304 473 294T473 273Q473 203 489 164T529 110T578 95Q591 95 609
99T648 117T689 162L706 156Q694 116 669 77T604 12T507 -14Z" />
<glyph unicode="&#xe7;" horiz-adv-x="503" d="M287 533Q331 533 365 524T419 503Q446 487 462 461T479 399Q479 358 452 330T383 302Q339 302 315 327T291 392Q291 430 315 456T373 492Q366 497 357 500T333 504Q297 504 275 483T240 426T222 351T217 273Q217
203 236 164T284 110T342 95Q356 95 375 99T418 117T463 162L480 156Q468 116 442 77T373 12T271 -14Q204 -14 150 12T63 98T30 259Q30 355 64 415T156 504T287 533ZM260 0L243 -60Q261 -52 280 -49T322 -45Q360 -45 378 -61T396 -103Q396 -132 376 -151T320 -179T238
-188Q211 -188 188 -185T148 -175L154 -157Q161 -158 174 -160T202 -162Q217 -162 231 -158T254 -146T264 -124Q264 -99 236 -99Q228 -99 219 -100T203 -106L233 0H260Z" />
<glyph unicode="&#xe8;" horiz-adv-x="503" d="M288 533Q376 533 426 482T477 309H164L162 328H331Q332 377 327 418T311 485T281 510Q254 510 237 468T215 322L219 314Q218 304 218 294T218 273Q218 203 235 164T279 110T333 95Q347 95 366 99T409 117T454 162L471
156Q459 116 433 77T364 12T262 -14Q198 -14 146 12T62 98T31 259Q31 355 65 415T157 504T288 533ZM152 820Q175 841 204 836T250 812Q268 792 276 766T295 703T335 608L324 599Q277 639 244 659T188 694T148 729Q131 750 131 776T152 820Z" />
<glyph unicode="&#xe9;" horiz-adv-x="503" d="M288 533Q376 533 426 482T477 309H164L162 328H331Q332 377 327 418T311 485T281 510Q254 510 237 468T215 322L219 314Q218 304 218 294T218 273Q218 203 235 164T279 110T333 95Q347 95 366 99T409 117T454 162L471
156Q459 116 433 77T364 12T262 -14Q198 -14 146 12T62 98T31 259Q31 355 65 415T157 504T288 533ZM390 820Q410 804 410 777T394 729Q378 709 355 695T298 660T218 599L207 608Q236 665 247 702T266 766T292 812Q308 831 337 835T390 820Z" />
<glyph unicode="&#xea;" horiz-adv-x="503" d="M288 533Q376 533 426 482T477 309H164L162 328H331Q332 377 327 418T311 485T281 510Q254 510 237 468T215 322L219 314Q218 304 218 294T218 273Q218 203 235 164T279 110T333 95Q347 95 366 99T409 117T454 162L471
156Q459 116 433 77T364 12T262 -14Q198 -14 146 12T62 98T31 259Q31 355 65 415T157 504T288 533ZM288 832Q319 773 368 716T475 620L467 606Q407 617 351 633T259 666Q231 650 185 634T91 606L83 620Q139 657 188 714T270 832H288Z" />
<glyph unicode="&#xeb;" horiz-adv-x="503" d="M288 533Q376 533 426 482T477 309H164L162 328H331Q332 377 327 418T311 485T281 510Q254 510 237 468T215 322L219 314Q218 304 218 294T218 273Q218 203 235 164T279 110T333 95Q347 95 366 99T409 117T454 162L471
156Q459 116 433 77T364 12T262 -14Q198 -14 146 12T62 98T31 259Q31 355 65 415T157 504T288 533ZM399 772Q434 772 460 746T486 685Q486 649 460 624T399 598Q363 598 338 623T312 685Q312 720 337 746T399 772ZM161 772Q196 772 222 746T248 685Q248 649 222
624T161 598Q125 598 100 623T74 685Q74 720 99 746T161 772Z" />
<glyph unicode="&#xec;" horiz-adv-x="330" d="M257 530V93Q257 51 269 36T313 21V0Q293 1 253 2T171 4Q129 4 86 3T21 0V21Q52 21 64 36T77 93V410Q77 455 65 476T21 498V519Q53 516 83 516Q133 516 176 519T257 530ZM41 820Q64 841 93 836T139 812Q157 792 165
766T184 703T224 608L213 599Q166 639 133 659T77 694T37 729Q20 750 20 776T41 820Z" />
<glyph unicode="&#xed;" horiz-adv-x="330" d="M257 530V93Q257 51 269 36T313 21V0Q293 1 253 2T171 4Q129 4 86 3T21 0V21Q52 21 64 36T77 93V410Q77 455 65 476T21 498V519Q53 516 83 516Q133 516 176 519T257 530ZM279 820Q299 804 299 777T283 729Q267 709
244 695T187 660T107 599L96 608Q125 665 136 702T155 766T181 812Q197 831 226 835T279 820Z" />
<glyph unicode="&#xee;" horiz-adv-x="330" d="M257 530V93Q257 51 269 36T313 21V0Q293 1 253 2T171 4Q129 4 86 3T21 0V21Q52 21 64 36T77 93V410Q77 455 65 476T21 498V519Q53 516 83 516Q133 516 176 519T257 530ZM433 832Q464 773 513 716T620 620L612 606Q552
617 496 633T404 666Q376 650 330 634T236 606L228 620Q284 657 333 714T415 832H433Z" />
<glyph unicode="&#xef;" horiz-adv-x="330" d="M257 530V93Q257 51 269 36T313 21V0Q293 1 253 2T171 4Q129 4 86 3T21 0V21Q52 21 64 36T77 93V410Q77 455 65 476T21 498V519Q53 516 83 516Q133 516 176 519T257 530ZM544 772Q579 772 605 746T631 685Q631 649
605 624T544 598Q508 598 483 623T457 685Q457 720 482 746T544 772ZM306 772Q341 772 367 746T393 685Q393 649 367 624T306 598Q270 598 245 623T219 685Q219 720 244 746T306 772Z" />
<glyph unicode="&#xf0;" horiz-adv-x="575" d="M136 782Q220 756 293 713T423 609T511 473T543 306Q543 195 512 124T424 18T289 -16Q213 -16 156 8T66 90T32 244Q32 326 50 381T102 470T177 518T265 533Q300 533 329 523T381 489L370 486Q362 494 352 498T331
505T311 508Q280 508 260 481T229 400T219 260Q219 171 228 114T253 31T289 4Q309 4 325 31T350 123T359 298Q359 375 351 444T318 572T248 680T128 765L136 782ZM302 695L319 681L120 584L111 602L302 695ZM458 771L467 753L319 681L302 695L458 771Z" />
<glyph unicode="&#xf1;" horiz-adv-x="625" d="M416 533Q462 533 488 522T529 493Q544 475 551 445T558 364V93Q558 51 570 36T614 21V0Q594 1 554 2T474 4Q432 4 392 3T332 0V21Q358 21 368 36T378 93V418Q378 439 373 453T358 474T329 481Q311 481 295 472T268
447T257 409V93Q257 51 267 36T303 21V0Q284 1 247 2T171 4Q129 4 86 3T21 0V21Q52 21 64 36T77 93V410Q77 455 65 476T21 498V519Q53 516 83 516Q133 516 176 519T257 530V458Q281 498 321 515T416 533ZM243 798Q276 798 298 788T340 765T378 742T424 732Q445
732 464 744T501 785L515 778Q498 691 463 653T387 615Q354 615 331 625T290 648T251 672T205 682Q184 682 165 670T128 628L114 635Q131 722 166 760T243 798Z" />
<glyph unicode="&#xf2;" horiz-adv-x="576" d="M288 533Q366 533 423 507T513 420T545 259Q545 158 513 98T424 12T288 -14Q211 -14 153 12T63 98T31 259Q31 360 63 420T153 506T288 533ZM288 513Q258 513 238 453T218 259Q218 125 238 66T288 6Q318 6 338 65T358
259Q358 393 338 453T288 513ZM161 820Q184 841 213 836T259 812Q277 792 285 766T304 703T344 608L333 599Q286 639 253 659T197 694T157 729Q140 750 140 776T161 820Z" />
<glyph unicode="&#xf3;" horiz-adv-x="576" d="M288 533Q366 533 423 507T513 420T545 259Q545 158 513 98T424 12T288 -14Q211 -14 153 12T63 98T31 259Q31 360 63 420T153 506T288 533ZM288 513Q258 513 238 453T218 259Q218 125 238 66T288 6Q318 6 338 65T358
259Q358 393 338 453T288 513ZM399 820Q419 804 419 777T403 729Q387 709 364 695T307 660T227 599L216 608Q245 665 256 702T275 766T301 812Q317 831 346 835T399 820Z" />
<glyph unicode="&#xf4;" horiz-adv-x="576" d="M288 533Q366 533 423 507T513 420T545 259Q545 158 513 98T424 12T288 -14Q211 -14 153 12T63 98T31 259Q31 360 63 420T153 506T288 533ZM288 513Q258 513 238 453T218 259Q218 125 238 66T288 6Q318 6 338 65T358
259Q358 393 338 453T288 513ZM297 832Q328 773 377 716T484 620L476 606Q416 617 360 633T268 666Q240 650 194 634T100 606L92 620Q148 657 197 714T279 832H297Z" />
<glyph unicode="&#xf5;" horiz-adv-x="576" d="M288 533Q366 533 423 507T513 420T545 259Q545 158 513 98T424 12T288 -14Q211 -14 153 12T63 98T31 259Q31 360 63 420T153 506T288 533ZM288 513Q258 513 238 453T218 259Q218 125 238 66T288 6Q318 6 338 65T358
259Q358 393 338 453T288 513ZM213 798Q246 798 268 788T310 765T348 742T394 732Q415 732 434 744T471 785L485 778Q468 691 433 653T357 615Q324 615 301 625T260 648T221 672T175 682Q154 682 135 670T98 628L84 635Q101 722 136 760T213 798Z" />
<glyph unicode="&#xf6;" horiz-adv-x="576" d="M288 533Q366 533 423 507T513 420T545 259Q545 158 513 98T424 12T288 -14Q211 -14 153 12T63 98T31 259Q31 360 63 420T153 506T288 533ZM288 513Q258 513 238 453T218 259Q218 125 238 66T288 6Q318 6 338 65T358
259Q358 393 338 453T288 513ZM408 772Q443 772 469 746T495 685Q495 649 469 624T408 598Q372 598 347 623T321 685Q321 720 346 746T408 772ZM170 772Q205 772 231 746T257 685Q257 649 231 624T170 598Q134 598 109 623T83 685Q83 720 108 746T170 772Z" />
<glyph unicode="&#xf7;" horiz-adv-x="623" d="M313 266Q336 266 352 250T369 211Q369 188 353 172T313 155Q291 155 275 171T258 211Q258 234 274 250T313 266ZM313 554Q336 554 352 538T369 499Q369 476 353 460T313 444Q291 444 275 460T258 499Q258 522 274
538T313 554ZM565 370V340H64V370H565Z" />
<glyph unicode="&#xf8;" horiz-adv-x="576" d="M288 533Q366 533 423 507T513 420T545 259Q545 158 513 98T424 12T288 -14Q211 -14 153 12T63 98T31 259Q31 360 63 420T153 506T288 533ZM288 513Q258 513 238 453T218 259Q218 125 238 66T288 6Q318 6 338 65T358
259Q358 393 338 453T288 513ZM646 466L661 446L448 63L432 84L646 466ZM405 73L420 53L332 -73L313 -60L405 73ZM756 592L775 579L683 446L668 466L756 592Z" />
<glyph unicode="&#xf9;" horiz-adv-x="622" d="M548 530V109Q548 64 560 43T604 21V0Q573 3 542 3Q492 3 449 0T368 -11V61Q344 21 304 4T209 -14Q163 -14 137 -3T96 26Q81 44 74 74T67 155V410Q67 455 55 476T11 498V519Q43 516 73 516Q123 516 166 519T247 530V101Q247
80 252 66T268 45T296 38Q315 38 331 47T357 72T368 110V410Q368 455 356 476T312 498V519Q344 516 374 516Q424 516 467 519T548 530ZM168 820Q191 841 220 836T266 812Q284 792 292 766T311 703T351 608L340 599Q293 639 260 659T204 694T164 729Q147 750 147
776T168 820Z" />
<glyph unicode="&#xfa;" horiz-adv-x="622" d="M548 530V109Q548 64 560 43T604 21V0Q573 3 542 3Q492 3 449 0T368 -11V61Q344 21 304 4T209 -14Q163 -14 137 -3T96 26Q81 44 74 74T67 155V410Q67 455 55 476T11 498V519Q43 516 73 516Q123 516 166 519T247 530V101Q247
80 252 66T268 45T296 38Q315 38 331 47T357 72T368 110V410Q368 455 356 476T312 498V519Q344 516 374 516Q424 516 467 519T548 530ZM406 820Q426 804 426 777T410 729Q394 709 371 695T314 660T234 599L223 608Q252 665 263 702T282 766T308 812Q324 831 353
835T406 820Z" />
<glyph unicode="&#xfb;" horiz-adv-x="622" d="M548 530V109Q548 64 560 43T604 21V0Q573 3 542 3Q492 3 449 0T368 -11V61Q344 21 304 4T209 -14Q163 -14 137 -3T96 26Q81 44 74 74T67 155V410Q67 455 55 476T11 498V519Q43 516 73 516Q123 516 166 519T247 530V101Q247
80 252 66T268 45T296 38Q315 38 331 47T357 72T368 110V410Q368 455 356 476T312 498V519Q344 516 374 516Q424 516 467 519T548 530ZM304 832Q335 773 384 716T491 620L483 606Q423 617 367 633T275 666Q247 650 201 634T107 606L99 620Q155 657 204 714T286
832H304Z" />
<glyph unicode="&#xfc;" horiz-adv-x="622" d="M548 530V109Q548 64 560 43T604 21V0Q573 3 542 3Q492 3 449 0T368 -11V61Q344 21 304 4T209 -14Q163 -14 137 -3T96 26Q81 44 74 74T67 155V410Q67 455 55 476T11 498V519Q43 516 73 516Q123 516 166 519T247 530V101Q247
80 252 66T268 45T296 38Q315 38 331 47T357 72T368 110V410Q368 455 356 476T312 498V519Q344 516 374 516Q424 516 467 519T548 530ZM415 772Q450 772 476 746T502 685Q502 649 476 624T415 598Q379 598 354 623T328 685Q328 720 353 746T415 772ZM177 772Q212
772 238 746T264 685Q264 649 238 624T177 598Q141 598 116 623T90 685Q90 720 115 746T177 772Z" />
<glyph unicode="&#xfd;" horiz-adv-x="529" d="M525 519V498Q506 491 489 471T454 401L329 29L278 -88L38 442Q21 480 6 489T-20 498V519Q20 516 63 515T143 513Q190 513 224 515T288 519V498Q270 498 254 496T231 487T232 460L360 156L349 148L397 295Q420 363
417 407T393 473T343 498V519Q357 518 377 517T416 516T448 515Q466 515 490 516T525 519ZM329 29L287 -92Q278 -117 268 -135T243 -164Q230 -174 209 -181T150 -188Q122 -188 91 -179T37 -150T14 -94Q14 -59 41 -38T112 -17Q153 -17 177 -35T202 -91Q202 -113
187 -135T137 -168Q145 -169 155 -169T171 -170Q203 -170 228 -151T266 -90L301 19L329 29ZM371 820Q391 804 391 777T375 729Q359 709 336 695T279 660T199 599L188 608Q217 665 228 702T247 766T273 812Q289 831 318 835T371 820Z" />
<glyph unicode="&#xfe;" horiz-adv-x="601" d="M243 782V-78Q243 -127 266 -143T329 -160V-181Q301 -180 251 -179T145 -177Q105 -177 66 -178T7 -181V-160Q38 -160 50 -145T63 -88V662Q63 707 51 728T7 750V771Q39 768 69 768Q119 768 162 771T243 782ZM395 533Q445
533 484 506T546 423T569 282Q569 197 551 140T500 49T425 1T336 -14Q302 -14 272 -7T221 22L231 35Q239 24 252 20T278 16Q315 16 338 43T371 124T382 259Q382 348 373 396T349 462T315 481Q287 481 265 461T243 409V458Q266 496 305 514T395 533Z" />
<glyph unicode="&#xff;" horiz-adv-x="529" d="M525 519V498Q506 491 489 471T454 401L329 29L278 -88L38 442Q21 480 6 489T-20 498V519Q20 516 63 515T143 513Q190 513 224 515T288 519V498Q270 498 254 496T231 487T232 460L360 156L349 148L397 295Q420 363
417 407T393 473T343 498V519Q357 518 377 517T416 516T448 515Q466 515 490 516T525 519ZM329 29L287 -92Q278 -117 268 -135T243 -164Q230 -174 209 -181T150 -188Q122 -188 91 -179T37 -150T14 -94Q14 -59 41 -38T112 -17Q153 -17 177 -35T202 -91Q202 -113
187 -135T137 -168Q145 -169 155 -169T171 -170Q203 -170 228 -151T266 -90L301 19L329 29ZM380 772Q415 772 441 746T467 685Q467 649 441 624T380 598Q344 598 319 623T293 685Q293 720 318 746T380 772ZM142 772Q177 772 203 746T229 685Q229 649 203 624T142
598Q106 598 81 623T55 685Q55 720 80 746T142 772Z" />
<glyph unicode="&#x2013;" horiz-adv-x="623" d="M569 341V202H54V341H569Z" />
<glyph unicode="&#x2014;" horiz-adv-x="917" d="M863 341V202H54V341H863Z" />
<glyph unicode="&#x2018;" horiz-adv-x="265" d="M141 435Q115 435 95 444T62 472Q52 486 45 511T37 567Q37 617 63 661T143 731L152 713Q126 701 106 679T77 631Q68 603 74 576Q100 607 147 607Q187 607 211 585T235 521Q235 482 209 459T141 435Z" />
<glyph unicode="&#x2019;" horiz-adv-x="258" d="M120 722Q146 722 166 713T199 685Q210 671 217 646T224 590Q224 540 198 496T118 426L109 444Q135 456 156 478T184 526Q193 554 187 581Q161 550 114 550Q74 550 50 572T26 636Q26 675 52 698T120 722Z" />
<glyph unicode="&#x201a;" horiz-adv-x="278" d="M135 158Q161 158 181 149T214 121Q225 107 232 82T239 26Q239 -24 213 -68T133 -138L124 -120Q150 -108 171 -86T199 -38Q208 -10 202 17Q176 -14 129 -14Q89 -14 65 8T41 72Q41 111 67 134T135 158Z" />
<glyph unicode="&#x201c;" horiz-adv-x="495" d="M141 434Q115 434 95 443T62 471Q52 485 45 510T37 566Q37 616 63 660T143 730L152 712Q126 700 106 678T77 630Q68 602 74 575Q100 606 147 606Q187 606 211 584T235 520Q235 481 209 458T141 434ZM371 434Q345
434 325 443T292 471Q282 485 275 510T267 566Q267 616 293 660T373 730L382 712Q356 700 336 678T307 630Q298 602 304 575Q330 606 377 606Q417 606 441 584T465 520Q465 481 439 458T371 434Z" />
<glyph unicode="&#x201d;" horiz-adv-x="488" d="M350 722Q376 722 396 713T429 685Q440 671 447 646T454 590Q454 540 428 496T348 426L339 444Q365 456 386 478T414 526Q423 554 417 581Q391 550 344 550Q304 550 280 572T256 636Q256 675 282 698T350 722ZM120
722Q146 722 166 713T199 685Q210 671 217 646T224 590Q224 540 198 496T118 426L109 444Q135 456 156 478T184 526Q193 554 187 581Q161 550 114 550Q74 550 50 572T26 636Q26 675 52 698T120 722Z" />
<glyph unicode="&#x201e;" horiz-adv-x="508" d="M365 158Q391 158 411 149T444 121Q455 107 462 82T469 26Q469 -24 443 -68T363 -138L354 -120Q380 -108 401 -86T429 -38Q438 -10 432 17Q406 -14 359 -14Q319 -14 295 8T271 72Q271 111 297 134T365 158ZM135
158Q161 158 181 149T214 121Q225 107 232 82T239 26Q239 -24 213 -68T133 -138L124 -120Q150 -108 171 -86T199 -38Q208 -10 202 17Q176 -14 129 -14Q89 -14 65 8T41 72Q41 111 67 134T135 158Z" />
<glyph unicode="&#x2022;" horiz-adv-x="515" d="M257 455Q309 455 351 430T418 363T443 269Q443 218 418 176T351 109T257 84Q206 84 164 109T97 176T72 269Q72 321 97 363T164 430T257 455Z" />
<glyph unicode="&#x2039;" horiz-adv-x="385" d="M328 535L342 531Q335 500 322 461T291 384T256 312T221 259Q238 239 256 207T291 135T321 58T342 -12L328 -16Q258 56 184 123T22 249V269Q110 328 184 395T328 535Z" />
<glyph unicode="&#x203a;" horiz-adv-x="386" d="M58 535Q128 463 202 396T364 269V249Q276 191 202 124T58 -16L44 -12Q51 20 64 58T95 135T130 206T165 259Q149 279 131 312T95 383T65 461T44 531L58 535Z" />
</font>
</defs>
</svg>
